Торрент файл
скачать торрент магнет ссылка Добавлен: 24 фев 2017, 21:23
Размер: 1.46 ГБ
Сидеров: 79
Личеров: 35
Статус: (salma3)
Автор

СообщениеДобавлено: 24 фев 2017, 21:23 

Не в сети
Супермодератор
Аватара пользователя
Дата регистрации:
15 фев 2012, 16:44
Возраст: 29
Спасибо: 7421 / 2147
Сообщения: 79842
Год выпуска: 2000
Жанр: фантастика, боевик, триллер
Режиссер: Энтони Хоффман

В ролях: Вэл Килмер, Кэрри-Энн Мосс, Том Сайзмор, Бенджамин Брэтт, Саймон Бейкер, Теренс Стэмп, Джессика Б. Мортон, Кэролайн Босси, Боб Нилл, Нил Росси др.

Описание:
В 21 веке Земля вымирает, и жить на ней становится все труднее. Ученые надеются основать колонию на Марсе. Команда из шести астронавтов отправляется на планету, чтобы осмотреть планету с целью ее пригодности для жизни. Однако после полугодового полета к цели при самой посадке, возникают проблемы. Теперь перед астронавтами стоит проблема — как улететь с этой планеты.



Страна: США
Продолжительность: 01:46:29
Перевод: Профессиональный (полное дублирование)

Формат: HDRip-AVC
Видео: 1024 x 432 (2:40:1), 23.976 fps, AVC (х264) , ~ 1545 Kbps, 0.146 bit/pixel
Аудио: 48 kHz, AC3 Dolby Digital, 3/2 (L,C,R,l,r) + LFE ch, ~384.00 kbps avg

General
Unique ID : 93325372036303144567749932128607755277 (0x4635D0176F306F51FD805D3A5ACD5C0D)
Complete name : C:\Users\Юрик\Desktop\Krasnaya.planeta.2000_[tfile.ru].mkv
Format : Matroska
Format version : Version 2
File size : 1.46 GiB
Duration : 1h 46mn
Overall bit rate : 1 968 Kbps
Writing application : Lavf55.12.100
Writing library : Lavf55.12.100

Video
ID : 2
Format : AVC
Format/Info : Advanced Video Codec
Format profile :
Format settings, CABAC : Yes
Format settings, ReFrames : 1 frame
Format settings, GOP : M=1, N=12
Codec ID : V_MPEG4/ISO/AVC
Duration : 1h 46mn
Bit rate : 1 545 Kbps
Width : 1 024 pixels
Height : 432 pixels
Display aspect ratio : 2.40:1
Frame rate mode : Constant
Frame rate : 23.976 fps
Color space : YUV
Chroma subsampling : 4:2:0
Bit depth : 8 bits
Scan type : Progressive
Bits/(Pixel*Frame) : 0.146
Stream size : 1.15 GiB (78%)
Default : Yes
Forced : No

Audio
ID : 1
Format : AC-3
Format/Info : Audio Coding 3
Mode extension : CM (complete main)
Format settings, Endianness : Big
Codec ID : A_AC3
Duration : 1h 46mn
Bit rate mode : Constant
Bit rate : 384 Kbps
Channel(s) : 6 channels
Channel positions : Front: L C R, Side: L R, LFE
Sampling rate : 48.0 KHz
Bit depth : 32 bits
Compression mode : Lossy
Stream size : 292 MiB (20%)
Default : Yes
Forced : No




_________________
Проголосуй за трекер Открытый торрент трекер - RUS-MEDIA.ORG

Проголосуй Открытый торрент трекер - RUS-MEDIA.ORG


Вернуться к началу
 Профиль Отправить личное сообщение  
 
   Похожие торренты   Автор   Торрент   Размер 
В этой теме нет новых непрочитанных сообщений. Красная планета / Red Planet [фантастика, боевик, триллер, 2000] BDRip-AVC, Dub

salma3

0 | 0

2.18 ГБ

В этой теме нет новых непрочитанных сообщений. Красная планета / Red Planet [фантастика, боевик, триллер, 2000] BDRip, Mvo [НТВ]

salma3

8 | 4

1.45 ГБ

В этой теме нет новых непрочитанных сообщений. Планета обезьян: Война / War for the Planet of the Apes [фантастика, боевик, триллер, 2017] HDRip, Dub [iTunes]

salma3

14251 | 5963

1.46 ГБ

В этой теме нет новых непрочитанных сообщений. Планета обезьян: Война / War for the Planet of the Apes [фантастика, боевик, триллер, 2017] HDRip-AVC, Dub [iTunes]

salma3

578 | 56

2.11 ГБ

В этой теме нет новых непрочитанных сообщений. Планета акул / Planet of the Sharks [ужасы, фантастика, боевик, 2016] HDRip, Mvo

salma3

2248 | 349

1.37 ГБ

В этой теме нет новых непрочитанных сообщений. Планета обезьян: Война / War for the Planet of the Apes [Фантастика, боевик, триллер, 2017] BDRip-AVC, Avo

salma3

0 | 0

2.43 ГБ

В этой теме нет новых непрочитанных сообщений. Планета обезьян: Война / War for the Planet of the Apes [фантастика, боевик, триллер, 2017] WEB-DL 1080р, Dub

salma3

377 | 147

5.39 ГБ


Начать новую тему Ответить на тему  [ 1 сообщение ] 




Для Мосгорсуда, Роскомнадзора и рекламодателей:: mosgorsud-torrent[собачка]yandex.ru
cron