Торрент файл
скачать торрент магнет ссылка Добавлен: 18 июл 2017, 11:58
Размер: 2.88 ГБ
Сидеров: 26
Личеров: 3
Статус: (salma3)
Автор

СообщениеДобавлено: 18 июл 2017, 11:58 

В сети
Супермодератор
Аватара пользователя
Дата регистрации:
15 фев 2012, 16:44
Возраст: 29
Спасибо: 7435 / 2147
Сообщения: 80360
Год выхода: 2007
Жанр: драма, мелодрама
Режиссер: Вик Сарин

В ролях: Джими Мистри, Кристин Крук, Нив Кэмпбелл, Джон Лайт, Ирфан Кхан, Мадхур Джаффри, Арья Баббар, Лушин Дюбей, Шеньер Хундал, Джесси Мосс, ...

О фильме: В конце 1940-х годов после провозглашения независимости Индии страна разделена на две части — исламский Пакистан и индуистскую Индию. Бывший солдат британской армии Джиан Синг оставляет армейскую службу и возвращается в родную деревню в Индию. Но его спокойная жизнь заканчивается, когда он спасает от расправы молодую мусульманку Насим. Несмотря на все разногласия и предрассудки, между молодыми людьми зарождается настоящая любовь, способная не только выжить в мире, окруженном злобой и ненавистью, но и сделать его лучше…



Страна: Канада, ЮАР, Великобритания
Продолжительность: 01:51:31
Перевод: Профессиональный (двуголосый, закадровый) R5 от «Мьюзик-Трейд»

Кодек: x264
Качество: DVDRip-AVC
Видео: 1008x576, 3500 kbps, 25 fps
Аудио #1: AC-3, 2 ch, 192 kbps (Rus) - DVO R5 «Мьюзик-Трейд»

За исходник спасибо - GERMYN
x264 [info]: frame I:1172 Avg QP:14.28 size: 71194
x264 [info]: frame P:34311 Avg QP:16.54 size: 36593
x264 [info]: frame B:131797 Avg QP:18.82 size: 12044
x264 [info]: consecutive B-frames: 1.7% 3.0% 7.7% 8.5% 7.9% 66.7% 3.7% 0.2% 0.2% 0.1% 0.1% 0.1% 0.1%
Общее
Уникальный идентификатор : 231352152706913812449948872562113586692 (0xAE0CCDC9BF4E912D92102F011CC92604)
Полное имя : Разрыв (Partition) 2007 DVDRip.mkv
Формат : Matroska
Версия формата : Version 2
Размер файла : 2,88 Гбайт
Продолжительность : 1 ч. 51 м.
Общий поток : 3693 Кбит/сек
Дата кодирования : UTC 2017-07-02 20:00:09
Программа кодирования : mkvmerge v4.0.0 ('The Stars were mine') сборка от Jun 6 2010 16:18:42
Библиотека кодирования : libebml v1.0.0 + libmatroska v1.0.0
Видео
Идентификатор : 1
Формат : AVC
Формат/Информация : Advanced Video Codec
Профиль формата : High@L4.1
Параметр CABAC формата : Да
Параметр ReFrames формата : 12 кадров
Идентификатор кодека : V_MPEG4/ISO/AVC
Продолжительность : 1 ч. 51 м.
Битрейт : 3500 Кбит/сек
Ширина : 1008 пикселей
Высота : 576 пикселей
Соотношение сторон : 16:9
Режим частоты кадров : Постоянный
Частота кадров : 25,000 кадров/сек
Цветовое пространство : YUV
Субдискретизация насыщенности : 4:2:0
Битовая глубина : 8 бит
Тип развёртки : Прогрессивная
Бит/(Пиксели*Кадры) : 0.241
Размер потока : 2,67 Гбайт (93%)
Библиотека кодирования : x264 core 146 r2538 121396c
Настройки программы : cabac=1 / ref=12 / deblock=1:-3:-3 / analyse=0x3:0x133 / me=umh / subme=11 / psy=1 / psy_rd=1.00:0.00 / mixed_ref=1 / me_range=32 / chroma_me=1 / trellis=2 / 8x8dct=1 / cqm=0 / deadzone=21,11 / fast_pskip=0 / chroma_qp_offset=-2 / threads=12 / lookahead_threads=2 / sliced_threads=0 / nr=0 / decimate=0 / interlaced=0 / bluray_compat=0 / constrained_intra=0 / bframes=12 / b_pyramid=2 / b_adapt=2 / b_bias=0 / direct=3 / weightb=1 / open_gop=0 / weightp=2 / keyint=250 / keyint_min=25 / scenecut=40 / intra_refresh=0 / rc=2pass / mbtree=0 / bitrate=3500 / ratetol=1.0 / qcomp=0.60 / qpmin=0 / qpmax=69 / qpstep=4 / cplxblur=20.0 / qblur=0.5 / ip_ratio=1.40 / pb_ratio=1.30 / aq=1:0.80
Язык : English
Default : Нет
Forced : Нет
Аудио
Идентификатор : 2
Формат : AC-3
Формат/Информация : Audio Coding 3
Расширение режима : CM (complete main)
Параметр Endianness формата : Big
Идентификатор кодека : A_AC3
Продолжительность : 1 ч. 51 м.
Вид битрейта : Постоянный
Битрейт : 192 Кбит/сек
Каналы : 2 канала
Расположение каналов : Front: L R
Частота : 48,0 КГц
Частота кадров : 31,250 кадров/сек (1536 spf)
Метод сжатия : С потерями
Размер потока : 153 Мбайт (5%)
Заголовок : DVO R5 «Мьюзик-Трейд»
Язык : Russian
Default : Нет
Forced : Нет



_________________
Проголосуй за трекер Открытый торрент трекер - RUS-MEDIA.ORG

Проголосуй Открытый торрент трекер - RUS-MEDIA.ORG


Вернуться к началу
 Профиль Отправить личное сообщение  
 
   Похожие торренты   Автор   Торрент   Размер 
В этой теме нет новых непрочитанных сообщений. Разрыв последовательности / Sequence Break [Ужасы, фантастика, мелодрама, 2017] WEBRip, Dvo

salma3

53 | 17

1.23 ГБ

В этой теме нет новых непрочитанных сообщений. Разрыв последовательности / Sequence Break [Ужасы, фантастика, мелодрама, 2017] WEBRip 720p, Dvo

salma3

17 | 8

2.4 ГБ

В этой теме нет новых непрочитанных сообщений. Amy Ried - Разрыв попки 9 / Ass Cleavage 9 (2008) DVDRip-AVC

salma3

12 | 1

494.6 МБ

В этой теме нет новых непрочитанных сообщений. Zero Tolerance - Разрыв попки 8 / Ass Cleavage 8 (2006) WEBRip

salma3

34 | 4

2.2 ГБ

В этой теме нет новых непрочитанных сообщений. Шелк / Silk [Драма, мелодрама, 2007] DVDRip-AVC, Mvo

salma3

25 | 8

746.65 МБ

В этой теме нет новых непрочитанных сообщений. Искра / Sparkle [драма, мелодрама, комедия, 2007] DVDRip, Mvo

salma3

110 | 41

698.22 МБ

В этой теме нет новых непрочитанных сообщений. AOMEI Partition Assistant Technician 7.5 (2018) РС | RePack by KpoJIuK

salma3

0 | 0

11.42 МБ


Начать новую тему Ответить на тему  [ 1 сообщение ] 




Для Мосгорсуда, Роскомнадзора и рекламодателей:: mosgorsud-torrent[собачка]yandex.ru
cron