Торрент файл
скачать торрент магнет ссылка Добавлен: 02 авг 2017, 21:16
Размер: 1.45 ГБ
Сидеров: 17
Личеров: 9
Статус: (salma3)
Автор

СообщениеДобавлено: 02 авг 2017, 21:16 

В сети
Супермодератор
Аватара пользователя
Дата регистрации:
15 фев 2012, 16:44
Возраст: 29
Спасибо: 7401 / 2147
Сообщения: 78579
Год выхода: 1970
Жанр: Триллер, Драма
Режиссер: Джордж Ситон / Генри Хэтэуэй

В ролях: Берт Ланкастер, Дин Мартин, Джин Сиберг, Жаклин Биссет, Джордж Кеннеди, Хелен Хэйес, Ван Хефлин, Морин Стейплтон, Бэрри Нельсон, Дана Уинтер...

О фильме:
Похоже, что начальнику Международного Аэропорта им. Линкольна Мэлу Бейкерсфелду и всей его команде выпал тяжелый денек - необходимо любой ценой поддерживать работу аэропорта в условиях непрекращающегося снега. Но как же это сделать, если сломанный самолет перекрыл одну из взлетно-посадочных полос, а один из пассажиров прячет в своем чемодане бомбу?



Страна: США
Продолжительность: 02:16:34
Перевод: Профессиональный (двухголосый, закадровый) [НТВ+]
Субтитры: русские, английские

Файл
Тип релиза: BDRip-AVC
Контейнер: MKV
Видео кодек: x264
Видео: High@L4.1, 1012x430 (2.35:1), 23.976 fps, ~1329 Kbps
Аудио: AC3 2.0, 192 kbps
Формат субтитров: softsub (SRT)
Главы: есть

General
Unique ID : 217625354713835680710704045847872893134 (0xA3B91E6518FC86F32ECB3C6E4F6570CE)
Complete name : E:Аэропорт.(1970).BDRIP-AVC.[-=DoMiNo=-].mkv
Format : Matroska
Format version : Version 4 / Version 2
File size : 1.45 GiB
Duration : 2 h 16 min
Overall bit rate : 1 525 kb/s
Movie name : Аэропорт
Deion : Похоже, что начальнику Международного Аэропорта им. Линкольна Мэлу Бейкерсфелду и всей его команде выпал тяжелый денек - необходимо любой ценой поддерживать работу аэропорта в условиях непрекращающегося снега. Но как же это сделать, если сломанный самолет перекрыл одну из взлетно-посадочных полос, а один из пассажиров прячет в своем чемодане бомбу?
Writing application : XviD4PSP 7.0.396 DAILY
Writing library : Lavf57.71.100
ErrorDetectionType : Per level 1
Attachments : poster.jpg
ACTORS : Берт Ланкастер, Дин Мартин, Джин Сиберг, Жаклин Биссет, Джордж Кеннеди, Хелен Хэйес, Ван Хефлин, Морин Стейплтон, Бэрри Нельсон, Дана Уинтер, Ллойд Нолан, Барбара Хейл, Гари Коллинз, Джон Финдлейтер, Джесси Ройс Лэндис, Ларри Гейтс, Питер Турджеон, Уит Бисселл, Вирджиния Грей, Эйлин Уэссон, Пол Пицерни, Роберт Паттен, Кларк Хоуват, Лью Браун, Илана Доудинг, Лиза Герритсен, Джеймс Нолан, Пэтти Поулсен, Эна Хартман, Malila Saint Duval, Шэрон Харви, Альберт Рид, Джодин Лоуренс, Нэнси Энн Нельсон, Дик Уинслоу, Лу Вагнер, Дженис Хансен, Мэри Джексон, Шелли Новак, Чак Дэниэл, Чарльз Брюэр, Флетчер Аллен, Леон Элтон, Мерри Андерс, Рики Андерсон, Рэй Андраде, Мария Андре, Nadine Arlyn, Рэй Баллард, Ларри Бартон, Майкл Белл, Саванна Бентли, Чак Боуман, Уильям Бойетт, Chuckie Bradley, Джеймс Брэдли, Ив Брент, Роберт Брубэйкер, Ди Кэрролл, Дорт Кларк, Эллен Кларк, Тамар Купер, Кэтлин Корделл, Ник Крэвет, Сьюзэн Кертис, Кэрол Дэниелс, Хэл К. Доусон, Эд Димер, Ларри Делани, Джон Делгадо, John N. Denend, Джон Дэннис, Kaye Elhardt, John Eloff, Реджинальд Фендерсон, Джон Френсис, Уильма Франсис, Марк Гарднер, Дон Газзанига, Сандра Гулд, Нил Грант, Джо Грэй, Майкл Дж. Грэйсон, Ларри Гринфилд, Warren Hammack, Марк Хэннибал, Гарри Харви, Томас Браун Генри, Арт Херн, Мэри Гэйл Хоббс, Фред Холлидэй, Венди Ховард, Уильям Хадсон, Джилл Джексон, Frank Jamus, Эндрю Брю, Бобби Джонсон, Дэйл Джонсон, Джуди Джордан, Уолтер Вулф Кинг, Роберт Кнапп, Рон Кослоу, Paul La Capria, Дэмиэн Лондон, Селия Ловски, Марко Лопез, Эдриэнн Мэрден, Ричард Мэтьюз, Дэвид Мауро, Эллисон МакКэй, Ив МакВиг, Fredricka Meyers, Белль Митчелл, Даллас Митчелл, Мишель Монтау, Барбара Моррисон, Дон Нэйджел, Джон Нолан, Уильям Х. О’Брайэн, Кэтлин О’Мэлли, Том Паке, Джим Паркер, Вик Перрин, Джо Плоски, Мюррэй Поллак, Пэт Прист, Куинн К. Редекер, Лиода Ричардс, Арнольд Робертс, Джордж Р. Робертсон, Сондра Роджерс, Дон Росс, Мэрион Росс, Роберт С. Росс, Майкл Ругас, Бенни Рубин, Дик Расселл, Джеки Расселл, Марк Расселл, Фрэнк Дж. Сканнелл, Майкл Севареид, Джонни Сильвер, Эрик Синклер, Кап Сомерс, Майкл Стернс, Майк Стил, Рон Стоукс, Арлен Стюарт, Лесли Саммерс, Джоэль Тингволл, Тоуина Томас, Гленн Томпсон, Би Томпкинс, Ричард Ван Влит, Dawn Villere, Бад Уоллс, Рик Уорик, Уолли Уэст, Винс Уильямс, Фредерик Уорлок
COMPOSER : Альфред Ньюман
COUNTRY : США
DATE : 1970
DIRECTOR : Джордж Ситон, Генри Хэтэуэй
ENCODING_INFO : MATROSKA,WEBM > MKV / H264 > X264 VBR-2P 1329kbps Произвольный / AC3 > COPY Безопасное
GENRE : боевик, триллер, драма
HD_VIDEO : 1
IMDB_RATING : 6.60
ITUNEXTC : mpaa|G|100|
Language : und
MEDIA_TYPE : 9
ORIGINAL_TITLE : Airport
PRODUCER : Росс Хантер, Жак Мейп, Гордон Корнелл Лэйн
RATING : 7.157
WRITER : Джордж Ситон, Артур Хейли

Video
ID : 1
Format : AVC
Format/Info : Advanced Video Codec
Format profile : High@L4.1
Format settings, CABAC : Yes
Format settings, RefFrames : 11 frames
Codec ID : V_MPEG4/ISO/AVC
Duration : 2 h 16 min
Bit rate : 1 329 kb/s
Width : 1 012 pixels
Height : 430 pixels
Display aspect ratio : 2.35:1
Frame rate mode : Constant
Frame rate : 23.976 (24000/1001) FPS
Color space : YUV
Chroma subsampling : 4:2:0
Bit depth : 8 bits
Scan type : Progressive
Bits/(Pixel*Frame) : 0.127
Stream size : 1.24 GiB (85%)
Title : RIP_BY_-=DoMiNo=-
Writing library : x264 core 152 r2851M ba24899
Encoding settings : cabac=1 / ref=11 / deblock=1:-3:-3 / analyse=0x3:0x133 / me=umh / subme=11 / psy=1 / psy_rd=1.00:0.10 / mixed_ref=1 / me_range=56 / chroma_me=1 / trellis=2 / 8x8dct=1 / cqm=0 / deadzone=21,11 / fast_pskip=1 / chroma_qp_offset=-3 / threads=5 / lookahead_threads=1 / sliced_threads=0 / nr=0 / decimate=1 / interlaced=0 / bluray_compat=0 / constrained_intra=0 / bframes=12 / b_pyramid=2 / b_adapt=2 / b_bias=0 / direct=3 / weightb=1 / open_gop=0 / weightp=2 / keyint=230 / keyint_min=23 / scenecut=40 / intra_refresh=0 / rc_lookahead=60 / rc=2pass / mbtree=1 / bitrate=1329 / ratetol=1.0 / qcomp=0.65 / qpmin=0 / qpmax=69 / qpstep=4 / cplxblur=20.0 / qblur=0.5 / ip_ratio=1.40 / aq=1:1.00
Default : Yes
Forced : No
DURATION : 02:16:34.520000000

Audio
ID : 2
Format : AC-3
Format/Info : Audio Coding 3
Format settings, Endianness : Big
Codec ID : A_AC3
Duration : 2 h 16 min
Bit rate mode : Constant
Bit rate : 192 kb/s
Channel(s) : 2 channels
Channel positions : Front: L R
Sampling rate : 48.0 kHz
Frame rate : 31.250 FPS (1536 SPF)
Bit depth : 16 bits
Compression mode : Lossy
Stream size : 188 MiB (13%)
Title : DVO
Language : Russian
Service kind : Complete Main
Default : Yes
Forced : No
DURATION : 02:16:34.560000000

Text #1
ID : 3
Format : UTF-8
Codec ID : S_TEXT/UTF8
Codec ID/Info : UTF-8 Plain Text
Title : RUS
Language : Russian
Default : Yes
Forced : No
DURATION : 02:15:29.338000000

Text #2
ID : 4
Format : UTF-8
Codec ID : S_TEXT/UTF8
Codec ID/Info : UTF-8 Plain Text
Title : ENG
Language : English
Default : No
Forced : No
DURATION : 02:15:29.038000000

Menu
00:00:00.000 : :Chapter 01
00:07:47.508 : :Chapter 02
00:14:54.059 : :Chapter 03
00:22:47.449 : :Chapter 04
00:32:00.043 : :Chapter 05
00:39:05.968 : :Chapter 06
00:47:06.865 : :Chapter 07
00:52:35.986 : :Chapter 08
00:59:43.371 : :Chapter 09
01:08:09.335 : :Chapter 10
01:16:22.869 : :Chapter 11
01:23:08.441 : :Chapter 12
01:30:46.691 : :Chapter 13
01:38:22.479 : :Chapter 14
01:45:40.500 : :Chapter 15
01:53:15.038 : :Chapter 16
02:00:41.275 : :Chapter 17
02:08:21.110 : :Chapter 18


_________________
Проголосуй за трекер Открытый торрент трекер - RUS-MEDIA.ORG

Проголосуй Открытый торрент трекер - RUS-MEDIA.ORG


Вернуться к началу
 Профиль Отправить личное сообщение  
 
   Похожие торренты   Автор   Торрент   Размер 
В этой теме нет новых непрочитанных сообщений. Аэропорт / Airport [Триллер, Драма, 1970] BDRip, Dvo [НТВ+]

salma3

23 | 19

1.45 ГБ

В этой теме нет новых непрочитанных сообщений. Аэропорт / Airport [Триллер, Драма, 1970] BDRip 1080p, Dvo

salma3

5 | 1

5.77 ГБ

В этой теме нет новых непрочитанных сообщений. Конкорд: Аэропорт-79 / The Concorde: Airport '79 [Триллер, драма, приключения, 1979] BDRip 1080p, Mvo

salma3

24 | 3

15.83 ГБ

В этой теме нет новых непрочитанных сообщений. Аэропорт 1975 / Airport 1975 [боевик, триллер, драма, 1974] BDRip 720p, Mvo+Sub

salma3

89 | 43

4.51 ГБ

В этой теме нет новых непрочитанных сообщений. Аэропорт 77 / Airport '77 [боевик, триллер, драма, 1977] DVDRip, Mvo

salma3

45 | 11

1.46 ГБ

В этой теме нет новых непрочитанных сообщений. Конкорд: Аэропорт-79 / The Concorde: Airport '79 [боевик, приключения, триллер, драма, 1979] DVDRip, Mvo

salma3

98 | 17

1.46 ГБ

В этой теме нет новых непрочитанных сообщений. Аэропорт 1975 / Airport 1975 [боевик, триллер, драма, 1974] HDRip, Mvo

salma3

188 | 36

1.45 ГБ


Начать новую тему Ответить на тему  [ 1 сообщение ] 




Для Мосгорсуда, Роскомнадзора и рекламодателей:: mosgorsud-torrent[собачка]yandex.ru
cron