Торрент файл
скачать торрент магнет ссылка Добавлен: 03 авг 2017, 15:23
Размер: 2.44 ГБ
Сидеров: 34
Личеров: 55
Статус: (salma3)
Автор

СообщениеДобавлено: 03 авг 2017, 15:23 

Не в сети
Супермодератор
Аватара пользователя
Дата регистрации:
15 фев 2012, 16:44
Возраст: 29
Спасибо: 7393 / 2147
Сообщения: 78044
Год выхода: 2008
Жанр: Ужасы, триллер
Режиссер: Крис Мур

В ролях: Патрик Флюгер, Агнес Брукнер, Тедди Данн, Риэнн Дузич, Тэрин Мэннинг, Тео Росси, Дэниел Фрэнзиси, Стеффи Уикенс, Кевин Гейдж, Эдвин Ходж, Дон МакМанус, Карли Поуп, Тони Уинн

О фильме:
Группа друзей отправляются в небольшую гостиницу, чтобы отпраздновать окончание колледжа, но попадают в ловушку маньяка-убийцы: к 6-ти утра следующего дня только один из них останется в живых, но если более чем один из них будет жив, то умрут все. Поэтому каждый должен стать убийцей, чтобы выжить.



Страна: США
Продолжительность: 01:25:13
Перевод: Профессиональный (полное дублирование), профессиональный (многоголосый)

Файл
Контейнер: MKV
Качество: BDRip-AVC
Видео: AVC, 1024x552 (1.855), 23.976 fps, 2 761 Kbps (0.204 bit/pixel)
Аудио #1: AC-3, 48.0 KHz, 6 ch, 448 Kbps, CBR (Russian)
Аудио #2: AC-3, 48.0 KHz, 6 ch, 448 Kbps, CBR (Russian)
Аудио #3: AC-3, 48.0 KHz, 6 ch, 448 Kbps, CBR (English)
Субтитры: Русские, английские

Релиз: &

x264 [info]: frame I:918 Avg QP:13.69 size: 86038 PSNR Mean Y:48.75 U:52.34 V:53.62 Avg:49.72 Global:48.28
x264 [info]: frame P:25470 Avg QP:16.59 size: 26790 PSNR Mean Y:46.85 U:51.24 V:52.53 Avg:47.92 Global:46.37
x264 [info]: frame B:96223 Avg QP:18.96 size: 10403 PSNR Mean Y:45.68 U:50.77 V:52.28 Avg:46.83 Global:44.96
Формат : Matroska
Версия формата : Version 2
Размер файла : 2,44 Гбайт
Продолжительность : 1 ч. 25 м.
Общий поток : 4104 Кбит/сек
Дата кодирования : UTC 2017-08-03 11:04:54
Программа кодирования : mkvmerge v5.3.0 ('I could have danced') built on Feb 9 2012 10:38:07
Библиотека кодирования : libebml v1.2.3 + libmatroska v1.3.0
Attachments : poster (2).jpg

Видео
Идентификатор : 1
Формат : AVC
Формат/Информация : Advanced Video Codec
Профиль формата : High@L4.1
Параметр CABAC формата : Да
Параметр ReFrames формата : 11 кадров
Идентификатор кодека : V_MPEG4/ISO/AVC
Продолжительность : 1 ч. 25 м.
Битрейт : 2761 Кбит/сек
Ширина : 1024 пикселя
Высота : 552 пикселя
Соотношение сторон : 1,85:1
Режим частоты кадров : Постоянный
Частота кадров : 23,976 (24000/1001) кадра/сек
Цветовое пространство : YUV
Субдискретизация насыщенности : 4:2:0
Битовая глубина : 8 бит
Тип развёртки : Прогрессивная
Бит/(Пиксели*Кадры) : 0.204
Размер потока : 1,59 Гбайт (65%)
Библиотека кодирования : x264 core 146 r2538 121396c
Настройки программы : cabac=1 / ref=11 / deblock=1:-3:-3 / analyse=0x3:0x133 / me=umh / subme=10 / psy=1 / psy_rd=1.00:0.10 / mixed_ref=1 / me_range=32 / chroma_me=1 / trellis=2 / 8x8dct=1 / cqm=0 / deadzone=21,11 / fast_pskip=0 / chroma_qp_offset=-3 / threads=12 / lookahead_threads=3 / sliced_threads=0 / nr=0 / decimate=1 / interlaced=0 / bluray_compat=0 / constrained_intra=0 / bframes=10 / b_pyramid=2 / b_adapt=2 / b_bias=0 / direct=3 / weightb=1 / open_gop=0 / weightp=2 / keyint=240 / keyint_min=23 / scenecut=40 / intra_refresh=0 / rc=2pass / mbtree=0 / bitrate=2761 / ratetol=1.0 / qcomp=0.60 / qpmin=0 / qpmax=69 / qpstep=4 / cplxblur=20.0 / qblur=0.5 / ip_ratio=1.40 / pb_ratio=1.30 / aq=3:0.90
Язык : English
Default : Да
Forced : Нет

Аудио #1
Идентификатор : 2
Формат : AC-3
Формат/Информация : Audio Coding 3
Расширение режима : CM (complete main)
Параметр Endianness формата : Big
Идентификатор кодека : A_AC3
Продолжительность : 1 ч. 25 м.
Вид битрейта : Постоянный
Битрейт : 448 Кбит/сек
Каналы : 6 каналов
Расположение каналов : Front: L C R, Side: L R, LFE
Частота : 48,0 КГц
Частота кадров : 31,250 кадров/сек (1536 spf)
Битовая глубина : 16 бит
Метод сжатия : С потерями
Размер потока : 273 Мбайт (11%)
Заголовок : Дублированный
Язык : Russian
Default : Да
Forced : Нет

Аудио #2
Идентификатор : 3
Формат : AC-3
Формат/Информация : Audio Coding 3
Расширение режима : CM (complete main)
Параметр Endianness формата : Big
Идентификатор кодека : A_AC3
Продолжительность : 1 ч. 25 м.
Вид битрейта : Постоянный
Битрейт : 448 Кбит/сек
Каналы : 6 каналов
Расположение каналов : Front: L C R, Side: L R, LFE
Частота : 48,0 КГц
Частота кадров : 31,250 кадров/сек (1536 spf)
Битовая глубина : 16 бит
Метод сжатия : С потерями
Размер потока : 273 Мбайт (11%)
Заголовок : Многоголосый
Язык : Russian
Default : Нет
Forced : Нет

Аудио #3
Идентификатор : 4
Формат : AC-3
Формат/Информация : Audio Coding 3
Расширение режима : CM (complete main)
Параметр Endianness формата : Big
Идентификатор кодека : A_AC3
Продолжительность : 1 ч. 25 м.
Вид битрейта : Постоянный
Битрейт : 448 Кбит/сек
Каналы : 6 каналов
Расположение каналов : Front: L C R, Side: L R, LFE
Частота : 48,0 КГц
Частота кадров : 31,250 кадров/сек (1536 spf)
Битовая глубина : 16 бит
Метод сжатия : С потерями
Размер потока : 273 Мбайт (11%)
Заголовок : Оригинальная звуковая дорожка
Язык : English
Default : Нет
Forced : Нет

Текст #1
Идентификатор : 5
Формат : UTF-8
Идентификатор кодека : S_TEXT/UTF8
Идентификатор кодека/Информация : UTF-8 Plain Text
Язык : English
Default : Нет
Forced : Нет

Текст #2
Идентификатор : 6
Формат : UTF-8
Идентификатор кодека : S_TEXT/UTF8
Идентификатор кодека/Информация : UTF-8 Plain Text
Язык : Russian
Default : Нет
Forced : Нет

Меню
00:00:00.000 : :Chapter 01
00:08:09.322 : :Chapter 02
00:16:17.185 : :Chapter 03
00:22:37.565 : :Chapter 04
00:27:55.424 : :Chapter 05
00:33:20.332 : :Chapter 06
00:38:17.921 : :Chapter 07
00:47:00.359 : :Chapter 08
00:55:40.963 : :Chapter 09
01:02:34.668 : :Chapter 10
01:10:51.831 : :Chapter 11
01:18:08.934 : :Chapter 12


_________________
Проголосуй за трекер Открытый торрент трекер - RUS-MEDIA.ORG

Проголосуй Открытый торрент трекер - RUS-MEDIA.ORG


Вернуться к началу
 Профиль Отправить личное сообщение  
 
   Похожие торренты   Автор   Торрент   Размер 
В этой теме нет новых непрочитанных сообщений. Теория заговора / Conspiracy Theory [боевик, триллер, мелодрама, 1997] BDRip, Dub

salma3

60 | 16

1.46 ГБ

В этой теме нет новых непрочитанных сообщений. Теория большого взрыва / The Big Bang Theory [S01-09] [комедия, ситком, 2007-2016] BDRip, WEB-DLRip, Avo [Кураж-Бамбей]

marya111

0 | 0

48.35 ГБ

В этой теме нет новых непрочитанных сообщений. Операция «Страх» / Operazione paura / Kill, Baby... Kill! [ужасы, детектив, 1966] BDRip 720p, Dvo

salma3

0 | 0

7.2 ГБ

В этой теме нет новых непрочитанных сообщений. Век убийств / Age of Kill [Боевик, 2015] HDRip, dvo

Dracon

1182 | 84

1.37 ГБ

В этой теме нет новых непрочитанных сообщений. Теория большого взрыва / The Big Bang Theory [10x01-09 из 24] (2016) HDTVRip | IdeaFilm

marya111

39 | 45

2.32 ГБ

В этой теме нет новых непрочитанных сообщений. Теория большого взрыва / The Big Bang Theory [10x01-10 из 24] (2016) HDTVRip | IdeaFilm

marya111

83 | 312

2.59 ГБ

В этой теме нет новых непрочитанных сообщений. Теория большого взрыва / The Big Bang Theory [10x01-10 из 24] (2016) HDTV 720p | IdeaFilm

marya111

53 | 281

6.48 ГБ


Начать новую тему Ответить на тему  [ 1 сообщение ] 




Для Мосгорсуда, Роскомнадзора и рекламодателей:: mosgorsud-torrent[собачка]yandex.ru
cron