Торрент файл
скачать торрент магнет ссылка Добавлен: 23 авг 2017, 14:05
Размер: 1.44 ГБ
Сидеров: 5
Личеров: 1
Статус: (salma3)
Автор

СообщениеДобавлено: 23 авг 2017, 14:05 

Не в сети
Супермодератор
Аватара пользователя
Дата регистрации:
15 фев 2012, 16:44
Возраст: 29
Спасибо: 7433 / 2147
Сообщения: 80216
Год выпуска: 1995
Жанр: боевик
Режиссер: Рэймонд Мартино / Raymond Martino

В ролях: Анна Николь Смит, Джои Траволта, Джон Эпри, Дэвид Провэл, Брэнском Ричмонд, Майкл Нури

Описание:
Фрэнк Да Винчи, ветеран Вьетнама и киллер со стажем, пытается порвать со своим темным прошлым. Его попытка обзавестись семьей и начать новую жизнь заканчивается бессмысленным кровопролитием. Невесту бывшего киллера убивают, под пули попадают его друзья, Фрэнку чудом удается избежать смерти. На место трагедии прибывает женщина, роковая во всех отношениях. Это агент ЦРУ Коллет. Она поклялась отомстить за смерть своего мужа, тоже ставшего жертвой заказного убийства. Выясняется, что у Коллет и Фрэнка много общего, даже враг у них общий - коррумпированный чиновник из ЦРУ Джеймсон, связанный с сетью наркоторговцев. Коллет и Фрэнк вместе противостоят Джеймсону и влюбляются друг в друга.

Страна: США
Продолжительность: 01:32:28
Перевод: Авторский (одноголосый закадровый)[Андрей, Гаврилов]

Качество: DVDRip
Видео: 704x528 (1.33:1), 25.000 fps, MPEG-4 Visual, 2023 Kbps, XviD 1.0.3
Аудио: 48 KHz, AC3, 2 ch (stereo), 192 Kbps

Сэмпл:

За звуковую дорожку с переводом А. Гаврилова с лицензионной VHS от компании "West Video" большое спасибо alenavova.
За синхронизацию звуковой дорожки огромная благодарность ale_x2008.
General
Complete name : C:\Users\До крайнего предела (Гаврилов).avi
Format : AVI
Format/Info : Audio Video Interleave
File size : 1.44 GiB
Duration : 1h 32mn
Overall bit rate : 2 225 Kbps
Writing application : VirtualDubMod 1.5.10.2 (build 2540/release)
Writing library : VirtualDubMod build 2540/release
Video
ID : 0
Format : MPEG-4 Visual
Format profile : Simple@L3
Format settings, BVOP : 2
Format settings, QPel : No
Format settings, GMC : No warppoints
Format settings, Matrix : Default (H.263)
Codec ID : XVID
Codec ID/Hint : XviD
Duration : 1h 32mn
Bit rate : 2 023 Kbps
Width : 704 pixels
Height : 528 pixels
Display aspect ratio : 4:3
Frame rate : 25.000 fps
Color space : YUV
Chroma subsampling : 4:2:0
Bit depth : 8 bits
Scan type : Progressive
Compression mode : Lossy
Bits/(Pixel*Frame) : 0.218
Stream size : 1.31 GiB (91%)
Writing library : XviD 1.0.3 (UTC 2004-12-20)
Audio
ID : 1
Format : AC-3
Format/Info : Audio Coding 3
Mode extension : CM (complete main)
Format settings, Endianness : Big
Codec ID : 2000
Duration : 1h 32mn
Bit rate mode : Constant
Bit rate : 192 Kbps
Channel(s) : 2 channels
Channel positions : Front: L R
Sampling rate : 48.0 KHz
Bit depth : 16 bits
Compression mode : Lossy
Stream size : 127 MiB (9%)
Alignment : Split accross interleaves
Interleave, duration : 40 ms (1.00 video frame)
Interleave, preload duration : 500 ms


_________________
Проголосуй за трекер Открытый торрент трекер - RUS-MEDIA.ORG

Проголосуй Открытый торрент трекер - RUS-MEDIA.ORG


Вернуться к началу
 Профиль Отправить личное сообщение  
 
   Похожие торренты   Автор   Торрент   Размер 
В этой теме нет новых непрочитанных сообщений. Эксперт / The Expert [боевик, 1995] DVDRip, Avo [Гаврилов]

salma3

0 | 0

1.37 ГБ

В этой теме нет новых непрочитанных сообщений. Последний оставшийся в живых / Last Man Standing [Боевик, 1995] DVDRip, Avo [Гаврилов]

salma3

0 | 0

1.45 ГБ

В этой теме нет новых непрочитанных сообщений. Без предела 7 / No Limits 7 (2004) DVDRip

salma3

75 | 4

2.05 ГБ

В этой теме нет новых непрочитанных сообщений. Коготь Тигра / Tiger Claws [Боевик, 1991] DVDRip, Avo [Гаврилов]

salma3

0 | 0

1.45 ГБ

В этой теме нет новых непрочитанных сообщений. Смертельные соперники / Deadly Rivals [боевик, 1993] DVDRip, Avo [Гаврилов]

salma3

92 | 7

1.46 ГБ

В этой теме нет новых непрочитанных сообщений. Пожиратель змей 3: Его закон / Snake Eater III: His Law [Боевик, 1992] DVDRip, Avo [Гаврилов]

salma3

0 | 0

1.41 ГБ

В этой теме нет новых непрочитанных сообщений. Заложники / Психопат Джек / Щелкунчик / Crackerjack [Боевик, 1994] DVDRip, Avo [Гаврилов]

salma3

14 | 5

1.37 ГБ


Начать новую тему Ответить на тему  [ 1 сообщение ] 




Для Мосгорсуда, Роскомнадзора и рекламодателей:: mosgorsud-torrent[собачка]yandex.ru
cron