Торрент файл
скачать торрент магнет ссылка Добавлен: 09 сен 2017, 10:57
Размер: 745.63 МБ
Сидеров: 112
Личеров: 26
Статус: (salma3)
Автор

СообщениеДобавлено: 09 сен 2017, 10:57 

Не в сети
Супермодератор
Аватара пользователя
Дата регистрации:
15 фев 2012, 16:44
Возраст: 29
Спасибо: 7428 / 2147
Сообщения: 80115
Год выхода: 2000
Жанр: Ужасы, мистика
Режиссер: Патрик Люссье / Patrick Lussier

В ролях: Джонни Ли Миллер, Джастин Уодделл, Джерард Батлер, Кристофер Пламмер, Дженнифер Эспозито, Локлин Мунро, Омар Эппс, Шон Патрик Томас, Дэнни Мастерсон, Джери Райан, Коллин Фицпатрик

О фильме :
Банда воров, оснащенных по последнему слову техники, проникает в хранилище известного лондонского антиквара Ван Хелсинга. Прихватив добычу, они скрываются из страны… Обеспокоенный Ван Хелсинг отправляется по следам грабителей, а за ним его помощник Саймон, заинтригованный тайной антиквара. Тот, с кем Саймон в итоге сталкивается, превосходит все ожидания! Его могущество безгранично, а деяния — ужасны! Его имя — Дракула. И лишь один человек на Земле знает правду. Но всей правды не знает никто!



Страна: США
Продолжительность: 01:39:02
Перевод: Профессиональный (полное дублирование)

Файл
Формат: MKV
Качество: BDRip-AVC
Видео: MPEG-4 AVC, 736x416, ~ 979 Кбит/с
Аудио: AAC-LC, 2 ch, ~72 Кбит/с
Субтитры: Russian, English

Общее
Уникальный идентификатор : 194969964966417108561999703277379911012 (0x92ADD970DE7B3FEC848515FAF7A9FD64)
Полное имя : D:MOVIESDracula 2000.2000.ExKinoRay.mkv
Формат : Matroska
Версия формата : Version 4 / Version 2
Размер файла : 746 Мбайт
Продолжительность : 1 ч. 39 м.
Общий поток : 1053 Кбит/сек
Дата кодирования : UTC 2017-09-09 04:45:30
Программа кодирования : mkvmerge v15.0.0 ('Duel with the Devil') 64-bit
Библиотека кодирования : libebml v1.3.5 + libmatroska v1.4.5

Видео
Идентификатор : 1
Формат : AVC
Формат/Информация : Advanced Video Codec
Профиль формата : High@L4.1
Параметр CABAC формата : Да
Параметр RefFrames формата : 10 кадров
Идентификатор кодека : V_MPEG4/ISO/AVC
Продолжительность : 1 ч. 39 м.
Битрейт : 979 Кбит/сек
Ширина : 736 пикселей
Высота : 416 пикселей
Соотношение сторон : 16:9
Режим частоты кадров : Постоянный
Частота кадров : 29,970 (30000/1001) кадров/сек
Цветовое пространство : YUV
Субдискретизация насыщенности : 4:2:0
Битовая глубина : 8 бит
Тип развёртки : Прогрессивная
Бит/(Пиксели*Кадры) : 0.107
Размер потока : 693 Мбайт (93%)
Библиотека кодирования : x264 core 130 r2273 b3065e6
Настройки программы : cabac=1 / ref=10 / deblock=1:-3:-3 / analyse=0x3:0x113 / me=umh / subme=11 / psy=1 / psy_rd=1.00:0.05 / mixed_ref=1 / me_range=32 / chroma_me=1 / trellis=2 / 8x8dct=1 / cqm=0 / deadzone=21,11 / fast_pskip=0 / chroma_qp_offset=-3 / threads=6 / lookahead_threads=1 / sliced_threads=0 / nr=0 / decimate=0 / interlaced=0 / bluray_compat=0 / constrained_intra=0 / bframes=10 / b_pyramid=2 / b_adapt=2 / b_bias=0 / direct=3 / weightb=1 / open_gop=0 / weightp=2 / keyint=300 / keyint_min=29 / scenecut=40 / intra_refresh=0 / rc_lookahead=40 / rc=2pass / mbtree=0 / bitrate=979 / ratetol=1.0 / qcomp=0.60 / qpmin=0 / qpmax=69 / qpstep=4 / cplxblur=20.0 / qblur=0.5 / vbv_maxrate=50000 / vbv_bufsize=62500 / nal_hrd=none / ip_ratio=1.40 / pb_ratio=1.30 / aq=1:1.00
Default : Да
Forced : Нет

Аудио
Идентификатор : 2
Формат : AAC
Формат/Информация : Advanced Audio Codec
Профиль формата : LC
Идентификатор кодека : A_AAC
Продолжительность : 1 ч. 39 м.
Битрейт : 72,0 Кбит/сек
Каналы : 2 канала
Расположение каналов : Front: L R
Частота : 48,0 КГц
Частота кадров : 46,875 кадров/сек (1024 SPF)
Метод сжатия : С потерями
Задержка видео : 9 мс.
Размер потока : 51,0 Мбайт (7%)
Default : Да
Forced : Нет

Текст #1
Идентификатор : 3
Формат : UTF-8
Идентификатор кодека : S_TEXT/UTF8
Идентификатор кодека/Информация : UTF-8 Plain Text
Продолжительность : 1 ч. 32 м.
Битрейт : 50 бит/сек
ElementCount : 648
Размер потока : 34,1 Кбайт (0%)
Язык : Russian
Default : Нет
Forced : Нет

Текст #2
Идентификатор : 4
Формат : UTF-8
Идентификатор кодека : S_TEXT/UTF8
Идентификатор кодека/Информация : UTF-8 Plain Text
Продолжительность : 1 ч. 32 м.
Битрейт : 34 бит/сек
ElementCount : 973
Размер потока : 23,5 Кбайт (0%)
Язык : English
Default : Нет
Forced : Нет

Меню
00:00:00.000 : :Chapter 01
00:05:33.166 : :Chapter 02
00:10:55.254 : :Chapter 03
00:16:30.489 : :Chapter 04
00:20:47.646 : :Chapter 05
00:24:56.962 : :Chapter 06
00:28:48.960 : :Chapter 07
00:34:42.647 : :Chapter 08
00:37:39.023 : :Chapter 09
00:44:32.936 : :Chapter 10
00:50:45.042 : :Chapter 11
00:58:09.953 : :Chapter 12
01:10:03.899 : :Chapter 13
01:17:44.326 : :Chapter 14
01:22:53.902 : :Chapter 15

Релиз от:


_________________
Проголосуй за трекер Открытый торрент трекер - RUS-MEDIA.ORG

Проголосуй Открытый торрент трекер - RUS-MEDIA.ORG


Вернуться к началу
 Профиль Отправить личное сообщение  
 
   Похожие торренты   Автор   Торрент   Размер 
В этой теме нет новых непрочитанных сообщений. Дракула 2000 / Dracula 2000 [ужасы, мистика, 2000] BDRemux 1080p, Dub

salma3

27 | 18

11.55 ГБ

В этой теме нет новых непрочитанных сообщений. Полицейский 2000 года / TC 2000 [Боевик, Фантастика, 1993] BDRip-AVC, Dvo+2Avo

salma3

35 | 9

2.18 ГБ

В этой теме нет новых непрочитанных сообщений. Дама с камелиями 2000 / Camille 2000 [1969, драма, мелодрама] BDRip, Avo

salma3

145 | 34

1.47 ГБ

В этой теме нет новых непрочитанных сообщений. Полицейский 2000 года / TC 2000 [Фантастика, боевик, 1993] BDRip-AVC, Dvo

salma3

35 | 9

745.09 МБ

В этой теме нет новых непрочитанных сообщений. Уравнитель 2000 / Equalizer 2000 [фантастика, боевик, приключения, 1987] BDRip 1080p, Avo

salma3

136 | 46

7.79 ГБ

В этой теме нет новых непрочитанных сообщений. Полицейский 2000 года / TC 2000 [Боевик, боевые искусства, фантастика, 1993] BDRip 1080p, Dvo

salma3

22 | 8

7 ГБ

В этой теме нет новых непрочитанных сообщений. Смертельные гонки 2000 года / Death Race 2000 [фантастика, боевик, комедия, спорт, 1975] BDRip-AVC, Avo

salma3

28 | 11

2.1 ГБ


Начать новую тему Ответить на тему  [ 1 сообщение ] 




Для Мосгорсуда, Роскомнадзора и рекламодателей:: mosgorsud-torrent[собачка]yandex.ru
cron