Торрент файл
скачать торрент магнет ссылка Добавлен: 17 сен 2017, 15:19
Размер: 2.9 ГБ
Сидеров: 82
Личеров: 7
Статус: (salma3)
Автор

СообщениеДобавлено: 17 сен 2017, 15:19 

Не в сети
Супермодератор
Аватара пользователя
Дата регистрации:
15 фев 2012, 16:44
Возраст: 29
Спасибо: 7421 / 2147
Сообщения: 79832
Год выхода: 2002
Жанр: триллер, драма, криминал
Режиссер: Стивен Фрирз

В ролях: Одри Тоту, Чиветел Эджиофор, Серхи Лопес, Софи Оконедо, Бенедикт Вонг, Кенан Худаверди, Дэймон Янгер, Пол Баттачарье, Даррелл Д’Силва, Сотиги Куяте, Эби Гоухад, Исраель Адурамо, Еми Аджибаде, Барбер Али, Юсуф Алтин, Фисун Бёрджесс, Златко Бурич, Крисс Досанж, Нома Думезвени, Жан-Филипп Экоффе

О фильме:
Подпольный мир Лондона. Здесь все продается и покупается. Молодой человек и девушка работают в одном отеле, очаге преступной деятельности. Они практически незнакомы до того момента, пока один из них не делает леденящее душу открытие. Герои не могут сообщить об этом ни коррумпированному боссу, ни полиции. Они будут счастливы, если им удастся остаться в живых.



Страна: Великобритания
Продолжительность: 01:37:02
Перевод: Дублированный, профессиональный многоголосый, профессиональный двухголосый

Файл
Кодек: x264
Качество: BDRip-AVC
Видео: MPEG-4 AVC, 2736 Кбит/с, 1024x560, 24 кадр/с
Аудио #1: AC3, 6 ch, 384 Кбит/с | Дублированный
Аудио #2: AC3, 6 ch, 384 Кбит/с | Профессиональный многоголосый
Аудио #3: AC3, 6 ch, 384 Кбит/с | Профессиональный двухголосый (DDV)
Аудио #4: AC3, 6 ch, 384 Кбит/с | Английский
Субтитры: Русские, английские


Общее
Уникальный идентификатор : 186493009805523543332542425799187540834 (0x8C4D3F48856EC2DA8345C72FF3A4AB62)
Полное имя : Dirty.Pretty.Things.2002.BDRip-AVC.mkv
Формат : Matroska
Версия формата : Version 4 / Version 2
Размер файла : 2,90 Гбайт
Продолжительность : 1 ч. 37 м.
Общий поток : 4274 Кбит/сек
Название фильма : Dirty.Pretty.Things.2002.BDRip-AVC by Koenig
Дата кодирования : UTC 2017-09-16 12:13:26
Программа кодирования : mkvmerge v12.0.0 ('Trust / Lust') 32bit
Библиотека кодирования : libebml v1.3.4 + libmatroska v1.4.5
Обложка : Yes
Attachments : cover.jpg

Видео
Идентификатор : 1
Формат : AVC
Формат/Информация : Advanced Video Codec
Профиль формата : High@L4.1
Параметр CABAC формата : Да
Параметр ReFrames формата : 11 кадров
Идентификатор кодека : V_MPEG4/ISO/AVC
Продолжительность : 1 ч. 37 м.
Битрейт : 2736 Кбит/сек
Ширина : 1024 пикселя
Высота : 560 пикселей
Соотношение сторон : 1,85:1
Режим частоты кадров : Постоянный
Частота кадров : 24,000 кадра/сек
Цветовое пространство : YUV
Субдискретизация насыщенности : 4:2:0
Битовая глубина : 8 бит
Тип развёртки : Прогрессивная
Бит/(Пиксели*Кадры) : 0.199
Размер потока : 1,85 Гбайт (64%)
Заголовок : Dirty.Pretty.Things.2002.BDRip-AVC
Библиотека кодирования : x264 core 148 r2744 b97ae06
Настройки программы : cabac=1 / ref=11 / deblock=1:-3:-3 / analyse=0x3:0x133 / me=umh / subme=10 / psy=1 / psy_rd=1.05:0.05 / mixed_ref=1 / me_range=32 / chroma_me=1 / trellis=2 / 8x8dct=1 / cqm=0 / deadzone=21,11 / fast_pskip=0 / chroma_qp_offset=-3 / threads=3 / lookahead_threads=1 / sliced_threads=0 / nr=0 / decimate=1 / interlaced=0 / bluray_compat=0 / constrained_intra=0 / bframes=12 / b_pyramid=2 / b_adapt=2 / b_bias=0 / direct=3 / weightb=1 / open_gop=0 / weightp=2 / keyint=240 / keyint_min=24 / scenecut=40 / intra_refresh=0 / rc_lookahead=40 / rc=2pass / mbtree=1 / bitrate=2736 / ratetol=1.0 / qcomp=0.60 / qpmin=10 / qpmax=51 / qpstep=4 / cplxblur=20.0 / qblur=0.5 / vbv_maxrate=50000 / vbv_bufsize=62500 / nal_hrd=none / filler=0 / ip_ratio=1.40 / aq=1:1.00
Default : Да
Forced : Нет

Аудио #1
Идентификатор : 2
Формат : AC-3
Формат/Информация : Audio Coding 3
Параметр Endianness формата : Big
Идентификатор кодека : A_AC3
Продолжительность : 1 ч. 37 м.
Вид битрейта : Постоянный
Битрейт : 384 Кбит/сек
Каналы : 6 каналов
Расположение каналов : Front: L C R, Side: L R, LFE
Частота : 48,0 КГц
Частота кадров : 31,250 кадров/сек (1536 spf)
Битовая глубина : 16 бит
Метод сжатия : С потерями
Размер потока : 267 Мбайт (9%)
Заголовок : DUB
Язык : Russian
ServiceKind/String : Complete Main
Default : Да
Forced : Нет

Аудио #2
Идентификатор : 3
Формат : AC-3
Формат/Информация : Audio Coding 3
Параметр Endianness формата : Big
Идентификатор кодека : A_AC3
Продолжительность : 1 ч. 37 м.
Вид битрейта : Постоянный
Битрейт : 384 Кбит/сек
Каналы : 6 каналов
Расположение каналов : Front: L C R, Side: L R, LFE
Частота : 48,0 КГц
Частота кадров : 31,250 кадров/сек (1536 spf)
Битовая глубина : 16 бит
Метод сжатия : С потерями
Размер потока : 267 Мбайт (9%)
Заголовок : MVO
Язык : Russian
ServiceKind/String : Complete Main
Default : Нет
Forced : Нет

Аудио #3
Идентификатор : 4
Формат : AC-3
Формат/Информация : Audio Coding 3
Параметр Endianness формата : Big
Идентификатор кодека : A_AC3
Продолжительность : 1 ч. 37 м.
Вид битрейта : Постоянный
Битрейт : 384 Кбит/сек
Каналы : 6 каналов
Расположение каналов : Front: L C R, Side: L R, LFE
Частота : 48,0 КГц
Частота кадров : 31,250 кадров/сек (1536 spf)
Битовая глубина : 16 бит
Метод сжатия : С потерями
Размер потока : 267 Мбайт (9%)
Заголовок : DVO - DDV
Язык : Russian
ServiceKind/String : Complete Main
Default : Нет
Forced : Нет

Аудио #4
Идентификатор : 5
Формат : AC-3
Формат/Информация : Audio Coding 3
Параметр Endianness формата : Big
Идентификатор кодека : A_AC3
Продолжительность : 1 ч. 37 м.
Вид битрейта : Постоянный
Битрейт : 384 Кбит/сек
Каналы : 6 каналов
Расположение каналов : Front: L C R, Side: L R, LFE
Частота : 48,0 КГц
Частота кадров : 31,250 кадров/сек (1536 spf)
Битовая глубина : 16 бит
Метод сжатия : С потерями
Размер потока : 267 Мбайт (9%)
Заголовок : Original
Язык : English
ServiceKind/String : Complete Main
Default : Нет
Forced : Нет

Текст #1
Идентификатор : 6
Формат : UTF-8
Идентификатор кодека : S_TEXT/UTF8
Идентификатор кодека/Информация : UTF-8 Plain Text
Продолжительность : 1 ч. 31 м.
Битрейт : 66 бит/сек
ElementCount : 728
Размер потока : 44,9 Кбайт (0%)
Заголовок : v1
Язык : Russian
Default : Да
Forced : Нет

Текст #2
Идентификатор : 7
Формат : UTF-8
Идентификатор кодека : S_TEXT/UTF8
Идентификатор кодека/Информация : UTF-8 Plain Text
Продолжительность : 1 ч. 31 м.
Битрейт : 69 бит/сек
ElementCount : 885
Размер потока : 46,8 Кбайт (0%)
Заголовок : v2
Язык : Russian
Default : Нет
Forced : Нет

Текст #3
Идентификатор : 8
Формат : UTF-8
Идентификатор кодека : S_TEXT/UTF8
Идентификатор кодека/Информация : UTF-8 Plain Text
Продолжительность : 1 ч. 35 м.
Битрейт : 40 бит/сек
ElementCount : 1007
Размер потока : 28,4 Кбайт (0%)
Язык : English
Default : Нет
Forced : Нет

Меню
00:00:00.000 : en:Chapter 1
00:05:21.107 : en:Chapter 2
00:12:14.107 : en:Chapter 3
00:17:36.108 : en:Chapter 4
00:23:10.400 : en:Chapter 5
00:28:37.108 : en:Chapter 6
00:34:19.108 : en:Chapter 7
00:39:38.942 : en:Chapter 8
00:44:51.608 : en:Chapter 9
00:51:16.067 : en:Chapter 10
00:57:55.608 : en:Chapter 11
01:04:19.817 : en:Chapter 12
01:08:30.067 : en:Chapter 13
01:14:54.192 : en:Chapter 14
01:22:54.024 : en:Chapter 15



_________________
Проголосуй за трекер Открытый торрент трекер - RUS-MEDIA.ORG

Проголосуй Открытый торрент трекер - RUS-MEDIA.ORG


Вернуться к началу
 Профиль Отправить личное сообщение  
 
   Похожие торренты   Автор   Торрент   Размер 
В этой теме нет новых непрочитанных сообщений. Грязные прелести / Dirty Pretty Things [триллер, драма, криминал, 2002] BDRip 1080p, Dub

salma3

107 | 69

9.09 ГБ

В этой теме нет новых непрочитанных сообщений. Грязные копы / Dirty [криминал, триллер, 2016] WEBDLRip, Mvo

salma3

183 | 34

1.37 ГБ

В этой теме нет новых непрочитанных сообщений. Другая полиция: грязные нелегалы / Dias Police: Dirty Yellow Boys [триллер, криминал, 2016] HDRip, Dvo

salma3

76 | 13

1.46 ГБ

В этой теме нет новых непрочитанных сообщений. Dirty Talk 3 / Грязные Разговоры 3 (2016) WEB-DL

amadei

4 | 2

1.63 ГБ

В этой теме нет новых непрочитанных сообщений. Грязные Куколки / The Dirty Dolls (2017) DVDRip

salma3

57 | 12

1.71 ГБ

В этой теме нет новых непрочитанных сообщений. Dirty Money / Грязные Деньги (2016) DVDRip

Dile-1

0 | 0

1.04 ГБ

В этой теме нет новых непрочитанных сообщений. Прелестные юные штучки Лекса 3 / Lex's Pretty Young Things 3 (2016) WEBRip

Dievas

9 | 3

1.84 ГБ


Начать новую тему Ответить на тему  [ 1 сообщение ] 




Для Мосгорсуда, Роскомнадзора и рекламодателей:: mosgorsud-torrent[собачка]yandex.ru
cron