Торрент файл
скачать торрент магнет ссылка Добавлен: 10 окт 2017, 20:36
Размер: 1.45 ГБ
Сидеров: 4
Личеров: 0
Статус: (salma3)
Автор

СообщениеДобавлено: 10 окт 2017, 20:36 

В сети
Супермодератор
Аватара пользователя
Дата регистрации:
15 фев 2012, 16:44
Возраст: 29
Спасибо: 7434 / 2147
Сообщения: 80293
Год выхода: 1985
Жанр: комедия
Режиссер: Альберт Брукс

В ролях: Альберт Брукс, Джули Хэгерти, Сильвия Фаррел, Тина Кинкейд, Кэнди Энн Браун, Мэгги Росвэлл, Ганс Вагнер, Брэнди Рубин, Майкл Грин, Роберт Хьюз, Рэйнольд Гидеон, Джон Ди Фуско, Майкл Корнелисон, Раду Гэйвор, Джон Рид, Пэт Гаррисон, Гэрри Маршалл

Описание:
В тридцать лет муж и жена решают оставить работу, жить свободно и путешествовать по Америке в доме на колесах.



Страна: США
Продолжительность: 01:31:30
Перевод: Любительский (одноголосый закадровый) Олег Воротилин
Субтитры: русские beroal, английские

Файл
Качество: BDRip-AVC
Видео: 1014x548 / 23.976 fps / ~2076 Kbps / High@L4.1
Аудио: AC3 / 48.0 KHz / 1.0 / 192kbps

General
Unique ID : 221003095250376139163505080834255589755 (0xA643A5DC69E9418492E2FB85FA35917B)
Complete name : C:UsersDoMiNoDesktopПотерянные в Америке.1985.BDRIP-AVC.[-=DoMiNo=-].mkv
Format : Matroska
Format version : Version 4 / Version 2
File size : 1.45 GiB
Duration : 1 h 31 min
Overall bit rate : 2 270 kb/s
Movie name : Потерянные в Америке
Deion : В тридцать лет муж и жена решают оставить работу, жить свободно и путешествовать по Америке в доме на колесах.
Encoded date : UTC 2017-10-10 13:00:11
Writing application : mkvmerge v16.0.0 ('Protest') 64-bit
Writing library : libebml v1.3.5 + libmatroska v1.4.8 / Lavf57.71.100
Attachments : poster.jpg
ACTORS : Альберт Брукс, Джули Хэгерти, Сильвия Фаррел, Тина Кинкейд, Кэнди Энн Браун, Мэгги Росвэлл, Ганс Вагнер, Брэнди Рубин, Майкл Грин, Tom Tarpey, Роберт Хьюз, Рэйнольд Гидеон, Джон Ди Фуско, Майкл Корнелисон, Раду Гэйвор, Джон Рид, Пэт Гаррисон, Гэрри Маршалл, Байрон Тонг, Гэйл Ланза, Дональд Гибб, Чарльз Босуэлл, Зик Мэннерс, Беа Мэннерс, Эрни Браун, Арт Франкель, Марк Сидни, Дэвид Майкл Кац, Рауль Флорес, Херб Нанас, Джои Коулмэн, Рекс Рид, Присцилла Кори, Боб Хьюз, Ларри Кинг
COMPOSER : Артур Б. Рубинстайн
COUNTRY : США
DATE : 1985
DIRECTOR : Альберт Брукс
GENRE : комедия
HD_VIDEO : 1
IMDB_RATING : 7.10
ITUNEXTC : mpaa|R|400|
Language : und
MEDIA_TYPE : 9
ORIGINAL_TITLE : Lost in America
PRODUCER : Марти Кац, Херб Нанас
RATING : 6.220
WRITER : Альберт Брукс, Моника Макгоун Джонсон

Video
ID : 1
Format : AVC
Format/Info : Advanced Video Codec
Format profile : High@L4.1
Format settings, CABAC : Yes
Format settings, RefFrames : 10 frames
Codec ID : V_MPEG4/ISO/AVC
Duration : 1 h 31 min
Bit rate : 2 076 kb/s
Width : 1 014 pixels
Height : 548 pixels
Display aspect ratio : 1.85:1
Frame rate mode : Constant
Frame rate : 23.976 (24000/1001) FPS
Color space : YUV
Chroma subsampling : 4:2:0
Bit depth : 8 bits
Scan type : Progressive
Bits/(Pixel*Frame) : 0.156
Stream size : 1.33 GiB (91%)
Title : RIP_BY_-=DoMiNo=-
Writing library : x264 core 152 r2851M ba24899
Encoding settings : cabac=1 / ref=10 / deblock=1:-3:-3 / analyse=0x3:0x133 / me=umh / subme=10 / psy=1 / psy_rd=1.00:0.05 / mixed_ref=1 / me_range=48 / chroma_me=1 / trellis=2 / 8x8dct=1 / cqm=0 / deadzone=21,11 / fast_pskip=1 / chroma_qp_offset=-3 / threads=6 / lookahead_threads=1 / sliced_threads=0 / nr=0 / decimate=1 / interlaced=0 / bluray_compat=0 / constrained_intra=0 / bframes=12 / b_pyramid=2 / b_adapt=2 / b_bias=0 / direct=3 / weightb=1 / open_gop=0 / weightp=2 / keyint=230 / keyint_min=23 / scenecut=40 / intra_refresh=0 / rc_lookahead=60 / rc=2pass / mbtree=1 / bitrate=2076 / ratetol=1.0 / qcomp=0.70 / qpmin=0 / qpmax=69 / qpstep=4 / cplxblur=20.0 / qblur=0.5 / ip_ratio=1.40 / aq=1:1.00
Default : Yes
Forced : No

Audio
ID : 2
Format : AC-3
Format/Info : Audio Coding 3
Format settings, Endianness : Big
Codec ID : A_AC3
Duration : 1 h 31 min
Bit rate mode : Constant
Bit rate : 192 kb/s
Channel(s) : 1 channel
Channel positions : Front: C
Sampling rate : 48.0 kHz
Frame rate : 31.250 FPS (1536 SPF)
Bit depth : 16 bits
Compression mode : Lossy
Stream size : 126 MiB (8%)
Title : VO [О. Воротилин]
Language : Russian
Service kind : Complete Main
Default : Yes
Forced : No

Text #1
ID : 3
Format : UTF-8
Codec ID : S_TEXT/UTF8
Codec ID/Info : UTF-8 Plain Text
Duration : 1 h 27 min
Bit rate : 122 b/s
Count of elements : 1223
Stream size : 79.1 KiB (0%)
Title : [beroal]
Language : Russian
Default : No
Forced : No

Text #2
ID : 4
Format : UTF-8
Codec ID : S_TEXT/UTF8
Codec ID/Info : UTF-8 Plain Text
Duration : 1 h 27 min
Bit rate : 103 b/s
Count of elements : 1569
Stream size : 66.5 KiB (0%)
Language : English
Default : No
Forced : No

Menu
00:00:00.000 : :00:00:00.000
00:07:19.648 : :00:07:19.648
00:13:36.357 : :00:13:36.357
00:20:39.405 : :00:20:39.405
00:23:40.628 : :00:23:40.628
00:29:05.452 : :00:29:05.452
00:31:32.307 : :00:31:32.307
00:37:55.982 : :00:37:55.982
00:43:24.685 : :00:43:24.685
00:49:52.156 : :00:49:52.156
00:58:38.473 : :00:58:38.473
01:01:39.446 : :01:01:39.446
01:07:45.103 : :01:07:45.103
01:10:53.499 : :01:10:53.499
01:18:04.680 : :01:18:04.680
01:21:38.060 : :01:21:38.060
01:25:14.359 : :01:25:14.359


_________________
Проголосуй за трекер Открытый торрент трекер - RUS-MEDIA.ORG

Проголосуй Открытый торрент трекер - RUS-MEDIA.ORG


Вернуться к началу
 Профиль Отправить личное сообщение  
 
   Похожие торренты   Автор   Торрент   Размер 
В этой теме нет новых непрочитанных сообщений. Потерянные в Америке / Lost in America [комедия, 1985] BDRip, Avo

salma3

36 | 11

1.45 ГБ

В этой теме нет новых непрочитанных сообщений. Потерянные в Америке / Lost in America [комедия, 1985] BDRip 720p, Avo

salma3

1 | 13

6.72 ГБ

В этой теме нет новых непрочитанных сообщений. Потерянные в Америке / Lost in America [комедия, 1985] BDRemux 1080р, Avo

salma3

17 | 18

23.77 ГБ

В этой теме нет новых непрочитанных сообщений. Потрахаться в Америке / Laid in America [Комедия, 2016] BDRip-AVC, Dvo

salma3

316 | 57

1.91 ГБ

В этой теме нет новых непрочитанных сообщений. Потерянные / The Lost [Ужасы, триллер, драма. 2006] BDRip 1080p, Avo

salma3

0 | 0

8.31 ГБ

В этой теме нет новых непрочитанных сообщений. Сделано в Америке / Made in America [комедия, 1993] WEB-DL 1080p, Mvo

salma3

0 | 0

11.71 ГБ

В этой теме нет новых непрочитанных сообщений. Однажды в Америке / Once Upon a Time in America [Драма, криминал, гангстерский, 1984] BDRip 1080p, Mvo [Extended Cut]

salma3

33 | 12

17.66 ГБ


Начать новую тему Ответить на тему  [ 1 сообщение ] 




Для Мосгорсуда, Роскомнадзора и рекламодателей:: mosgorsud-torrent[собачка]yandex.ru
cron