Торрент файл
скачать торрент магнет ссылка Добавлен: 28 окт 2017, 11:03
Размер: 1.89 ГБ
Сидеров: 9
Личеров: 1
Статус: (salma3)
Автор

СообщениеДобавлено: 28 окт 2017, 11:03 

Не в сети
Супермодератор
Аватара пользователя
Дата регистрации:
15 фев 2012, 16:44
Возраст: 29
Спасибо: 7401 / 2147
Сообщения: 78569
Год выхода: 1965
Жанр: Приключения, вестерн
Режиссер: Георг Маришка

В ролях: Гай Мэдисон, Рик Баталья, Фернандо Рей, Уильям Ротлейн, Франциско Рабаль, Хейнц Эрхард, Крис Хоулэнд, Уолтер Гиллер, Карло Тамберлани

О фильме: Древние земли Южной Америки хранят ещё немало тайн и секретов. А также они хранят великие сокровища, оставшиеся после таинственной и трагической гибели целой цивилизации - Страны Великих Инков. Этот народ умел не только сражаться и завоёвывать всё новые пространства, но и красиво, с роскошью и шиком отдохнуть. Именно поэтому до сих пор то там, то здесь случайно находят громадные золотые изделия, невероятные в своей красоте драгоценные камни, невиданные по мастерству и великолепию кольца и ожерелья…
В этом фильме кучке авантюристов и искателей приключений противостоит мощная, хорошо законспирированная и разветвлённая тайная организация наследников Древних Инков. Кто из них выйдет победителем в безумной гонке за сокровищами? По произведению К.Ф.Мая.



Страна: Испания, Италия, Болгария, Германия (ФРГ)
Продолжительность: 01:33:47
Перевод: Профессиональный [двухголосый]

Файл
Качество: DVDRip-AVC
Видео: MPEG-4 AVC, 2500 Кбит/с, 720x434@1024x434
Звук: Русский, немецкий (AC3, 2 ch, 192 Кбит/с)

Семпл



raw : 720x434p 64:45 @ 25/1 fps (cfr)
x264 [info]: using SAR=64/45
x264 [info]: using cpu capabilities: MMX2 SSE2Fast LZCNT
x264 [info]: profile High, level 4.1
x264 [info]: frame I:1074 Avg QP:17.13 size: 55081
x264 [info]: frame P:37971 Avg QP:19.30 size: 23531
x264 [info]: frame B:101645 Avg QP:21.68 size: 7929
x264 [info]: consecutive B-frames: 2.8% 5.8% 9.5% 59.3% 10.8% 11.1% 0.5% 0.2% 0.0% 0.0% 0.0% 0.0% 0.0% 0.0% 0.0% 0.0% 0.1%
-----
Общее
Уникальный идентификатор : 209822626385540463045121233723800936794 (0x9DDA5E2FC8146D68A23E31B505E7E15A)
Полное имя : D:\Relizes\Zoloto.Inkov.1965.DVDRip-AVC.ExKinoRay.mkv
Формат : Matroska
Версия формата : Version 2
Размер файла : 1,89 Гбайт
Продолжительность : 1 ч. 33 м.
Общий поток : 2886 Кбит/сек
Дата кодирования : UTC 2017-10-28 02:31:43
Программа кодирования : mkvmerge v7.8.0 ('River Man') 32bit built on Apr 3 2015 12:11:22
Библиотека кодирования : libebml v1.3.1 + libmatroska v1.4.2

Видео
Идентификатор : 1
Формат : AVC
Формат/Информация : Advanced Video Codec
Профиль формата : High@L4.1
Параметр CABAC формата : Да
Параметр ReFrames формата : 14 кадров
Идентификатор кодека : V_MPEG4/ISO/AVC
Продолжительность : 1 ч. 33 м.
Битрейт : 2500 Кбит/сек
Ширина : 720 пикселей
Высота : 434 пикселя
Соотношение сторон : 2,35:1
Режим частоты кадров : Постоянный
Частота кадров : 25,000 кадров/сек
Цветовое пространство : YUV
Субдискретизация насыщенности : 4:2:0
Битовая глубина : 8 бит
Тип развёртки : Прогрессивная
Бит/(Пиксели*Кадры) : 0.320
Размер потока : 1,60 Гбайт (85%)
Библиотека кодирования : x264 core 148 r2638 7599210
Настройки программы : cabac=1 / ref=14 / deblock=1:-2:-2 / analyse=0x3:0x133 / me=umh / subme=10 / psy=1 / psy_rd=1.05:0.15 / mixed_ref=1 / me_range=32 / chroma_me=1 / trellis=2 / 8x8dct=1 / cqm=0 / deadzone=21,11 / fast_pskip=0 / chroma_qp_offset=-3 / threads=4 / lookahead_threads=1 / sliced_threads=0 / nr=0 / decimate=0 / interlaced=0 / bluray_compat=0 / constrained_intra=0 / bframes=16 / b_pyramid=2 / b_adapt=2 / b_bias=0 / direct=3 / weightb=1 / open_gop=0 / weightp=2 / keyint=250 / keyint_min=25 / scenecut=40 / intra_refresh=0 / rc=2pass / mbtree=0 / bitrate=2500 / ratetol=1.0 / qcomp=0.60 / qpmin=0 / qpmax=69 / qpstep=4 / cplxblur=20.0 / qblur=0.5 / ip_ratio=1.40 / pb_ratio=1.30 / aq=1:1.00
Язык : English
Default : Да
Forced : Нет
Цветовой диапазон : Limited
Основные цвета : BT.601 NTSC
Характеристики трансфера : BT.601
Коэффициенты матрицы : BT.601

Аудио #1
Идентификатор : 2
Формат : AC-3
Формат/Информация : Audio Coding 3
Расширение режима : CM (complete main)
Параметр Endianness формата : Big
Идентификатор кодека : A_AC3
Продолжительность : 1 ч. 33 м.
Вид битрейта : Постоянный
Битрейт : 192 Кбит/сек
Каналы : 2 канала
Расположение каналов : Front: L R
Частота : 48,0 КГц
Частота кадров : 31,250 кадров/сек (1536 spf)
Метод сжатия : С потерями
Размер потока : 129 Мбайт (7%)
Язык : Russian
Default : Да
Forced : Нет

Аудио #2
Идентификатор : 3
Формат : AC-3
Формат/Информация : Audio Coding 3
Расширение режима : CM (complete main)
Параметр Endianness формата : Big
Идентификатор кодека : A_AC3
Продолжительность : 1 ч. 33 м.
Вид битрейта : Постоянный
Битрейт : 192 Кбит/сек
Каналы : 2 канала
Расположение каналов : Front: L R
Частота : 48,0 КГц
Частота кадров : 31,250 кадров/сек (1536 spf)
Метод сжатия : С потерями
Размер потока : 129 Мбайт (7%)
Язык : German
Default : Нет
Forced : Нет



Релиз от: Rip by:


_________________
Проголосуй за трекер Открытый торрент трекер - RUS-MEDIA.ORG

Проголосуй Открытый торрент трекер - RUS-MEDIA.ORG


Вернуться к началу
 Профиль Отправить личное сообщение  
 
   Похожие торренты   Автор   Торрент   Размер 
В этой теме нет новых непрочитанных сообщений. Последний из могикан / Uncas, el fin de una raza [приключения, вестерн, 1965] DVDRip, Avo

salma3

60 | 7

1.36 ГБ

В этой теме нет новых непрочитанных сообщений. Золото Маккенны / Mackenna's Gold [Вестерн, приключения, 1969] BDRip-AVC, Dub

salma3

28 | 0

2.18 ГБ

В этой теме нет новых непрочитанных сообщений. Золото Маккенны / Mackenna's Gold [мелодрама, вестерн, приключения, 1969] BDRip 1080p, Dub

salma3

66 | 21

11.59 ГБ

В этой теме нет новых непрочитанных сообщений. Пропойцы / The Rounders [комедия, вестерн, 1965] DVDRip, Avo

salma3

90 | 8

1.46 ГБ

В этой теме нет новых непрочитанных сообщений. Палец на курке / Finger on the Trigger [Вестерн, Драма, 1965] DVDRip-AVC, Dvo+Sub

salma3

36 | 8

2.08 ГБ

В этой теме нет новых непрочитанных сообщений. Сыновья Большой Медведицы / Die Sohne der groben Barin [вестерн, 1965] Blu-ray 1080i, Dub

salma3

5 | 4

22.11 ГБ

В этой теме нет новых непрочитанных сообщений. Сыновья Кэти Элдер / The Sons of Katie Elder [вестерн, 1965] WEBRip, Mvo

salma3

25 | 9

1.45 ГБ


Начать новую тему Ответить на тему  [ 1 сообщение ] 




Для Мосгорсуда, Роскомнадзора и рекламодателей:: mosgorsud-torrent[собачка]yandex.ru
cron