Торрент файл
скачать торрент магнет ссылка Добавлен: 31 окт 2017, 12:13
Размер: 1.37 ГБ
Сидеров: 129
Личеров: 21
Статус: (salma3)
Автор

СообщениеДобавлено: 31 окт 2017, 12:13 

Не в сети
Супермодератор
Аватара пользователя
Дата регистрации:
15 фев 2012, 16:44
Возраст: 29
Спасибо: 7400 / 2147
Сообщения: 78200
Год выхода: 2017
Жанр: драма, биография
Режиссер: Дестин Креттон

В ролях: Бри Ларсон, Вуди Харрельсон, Наоми Уоттс, Элла Андерсон, Чандлер Хэд, Макс Гринфилд, Джош Барклай Карас, Чарли Шотуэлл, Иэн Армитедж, Сара Снук

О фильме:
Девочка растет в неблагополучной семье нонконформистов-кочевников. Ее мать эксцентричная артистка, а отец — алкоголик. Родители пытаются вселить надежду в ее детское воображение, чтобы хоть как-то отвлечь внимание от бедности.



Страна: США
Продолжительность: 02:07:11
Перевод: Любительский (многоголосый, закадровый) | [КОЛОБОК]

Файл
Кодек: XviD
Качество: HDRip
Видео: 720x304, 1324 kbps, 23.976 fps
Звук: 48.0 kHz, AC3 Dolby Digital, 2/0 (L,R) ch, ~192 kbps

ПРИСУТСТВУЕТ РЕКЛАМА

General
Complete name : D:TorrentThe.Glass.Castle.2017.P.HDRip.14OOMB_KOSHARA.avi
Format : AVI
Format/Info : Audio Video Interleave
File size : 1.37 GiB
Duration : 2 h 8 min
Overall bit rate : 1 525 kb/s
Writing application : VirtualDubMod 1.5.10.2 (build 2540/release)
Writing library : VirtualDubMod build 2540/release

Video
ID : 0
Format : MPEG-4 Visual
Format profile : Advanced Simple@L5
Format settings, BVOP : 2
Format settings, QPel : No
Format settings, GMC : No warppoints
Format settings, Matrix : Default (MPEG)
Codec ID : XVID
Codec ID/Hint : XviD
Duration : 2 h 8 min
Bit rate : 1 324 kb/s
Width : 720 pixels
Height : 304 pixels
Display aspect ratio : 2.35:1
Frame rate : 23.976 (24000/1001) FPS
Color space : YUV
Chroma subsampling : 4:2:0
Bit depth : 8 bits
Scan type : Progressive
Compression mode : Lossy
Bits/(Pixel*Frame) : 0.252
Stream size : 1.19 GiB (87%)
Writing library : XviD 1.2.1 (UTC 2008-12-04)

Audio
ID : 1
Format : AC-3
Format/Info : Audio Coding 3
Format settings, Endianness : Big
Codec ID : 2000
Duration : 2 h 8 min
Bit rate mode : Constant
Bit rate : 192 kb/s
Channel(s) : 2 channels
Channel positions : Front: L R
Sampling rate : 48.0 kHz
Frame rate : 31.250 FPS (1536 SPF)
Bit depth : 16 bits
Compression mode : Lossy
Stream size : 176 MiB (13%)
Alignment : Split accross interleaves
Interleave, duration : 42 ms (1.00 video frame)
Interleave, preload duration : 500 ms
Service kind : Complete Main








_________________
Проголосуй за трекер Открытый торрент трекер - RUS-MEDIA.ORG

Проголосуй Открытый торрент трекер - RUS-MEDIA.ORG


Вернуться к началу
 Профиль Отправить личное сообщение  
 
   Похожие торренты   Автор   Торрент   Размер 
В этой теме нет новых непрочитанных сообщений. Стеклянный замок / The Glass Castle [драма, биография, 2017] HDRip, Mvo

salma3

48 | 11

2.05 ГБ

В этой теме нет новых непрочитанных сообщений. Стеклянный замок / The Glass Castle [драма, биография, 2017] HDRip, Mvo [iTunes]

salma3

18 | 2

1.37 ГБ

В этой теме нет новых непрочитанных сообщений. Стеклянный замок / The Glass Castle [драма, биография, 2017] HDRip, Mvo [iTunes]

salma3

2 | 4

2.05 ГБ

В этой теме нет новых непрочитанных сообщений. Стеклянный замок / The Glass Castle [драма, биография, 2017] BDRip 720p, Mvo

salma3

95 | 14

5.34 ГБ

В этой теме нет новых непрочитанных сообщений. Стеклянный замок / The Glass Castle [драма, биография, 2017] BDRip 1080p, Mvo

salma3

32 | 6

10.08 ГБ

В этой теме нет новых непрочитанных сообщений. Стеклянный замок / The Glass Castle [драма, биография, 2017] BDRip 1080p, Avo [iTunes]

salma3

0 | 0

12.07 ГБ

В этой теме нет новых непрочитанных сообщений. Стеклянный замок / The Glass Castle [драма, биография, 2017] BDRip 720p, Avo [iTunes]

salma3

0 | 0

6.43 ГБ


Начать новую тему Ответить на тему  [ 1 сообщение ] 




Для Мосгорсуда, Роскомнадзора и рекламодателей:: mosgorsud-torrent[собачка]yandex.ru
cron