Торрент файл
скачать торрент магнет ссылка Добавлен: 15 ноя 2017, 23:52
Размер: 2.19 ГБ
Сидеров: 39
Личеров: 13
Статус: (salma3)
Автор

СообщениеДобавлено: 15 ноя 2017, 23:52 

В сети
Супермодератор
Аватара пользователя
Дата регистрации:
15 фев 2012, 16:44
Возраст: 29
Спасибо: 7400 / 2147
Сообщения: 78391
Год выхода: 1996
Жанр: Фэнтези, приключения, семейный
Режиссёр: Чарльз Старридж / Charles Sturridge

В ролях: Тед Дэнсон, Мэри Стинберген, Джеймс Фокс, Нед Битти, Эдвард Фокс, Роберт Харди, Николас Линдхерст, Фиби Николлс, Керин Парсонс, Эдвард Петербридж

О фильме: Он был великаном в Стране Лилипутов и лилипутом в Стране Великанов. Он в одиночку сражался с вражеским флотом и гигантскими осами. Он побывал на Летающем острове ученых и в Стране Говорящих Лошадей. Он разговаривал с духами мертвых и едва не обрел бессмертие. И единственным человеком, поверившим во все это, был его сын...



Страна: США, Великобритания
Продолжительность: 02:59:20
Перевод: Профессиональный (многоголосый, закадровый)

Файл
Формат: avi
Качество: DVDRip (DVD9)
Видео: XviD, 688х512, 25fps, 1540kbps
Аудио: MPEG Layer 3, 2ch, 48000Hz, 192kbps



Общее
Полное имя : Gulliver.1996.P.DVDRip.2100.CurHaJI.avi
Формат : AVI
Формат/Информация : Audio Video Interleave
Профиль формата : OpenDML
Размер файла : 2,19 Гбайт
Продолжительность : 2 ч. 59 м.
Общий поток : 1744 Кбит/сек
Название фильма : Gulliver.1996.P.DVDRip.2100.CurHaJI
Программа кодирования : VirtualDubMod 1.5.10.3 | http://www.virtualdub-fr.org || (build 2550/release)
Библиотека кодирования : VirtualDub build 35491/release

Видео
Идентификатор : 0
Формат : MPEG-4 Visual
Профиль формата : Advanced Simple@L5
Параметр BVOP формата : 1
Параметр QPel формата : Нет
Параметр GMC формата : Без точки перехода
Параметр матрицы формата : Выборочная
Идентификатор кодека : XVID
Идентификатор кодека/Подсказка : XviD
Продолжительность : 2 ч. 59 м.
Битрейт : 1540 Кбит/сек
Ширина : 688 пикселей
Высота : 512 пикселей
Соотношение сторон : 4:3
Частота кадров : 25,000 кадров/сек
Цветовое пространство : YUV
Субдискретизация насыщенности : 4:2:0
Битовая глубина : 8 бит
Тип развёртки : Прогрессивная
Метод сжатия : С потерями
Бит/(Пиксели*Кадры) : 0.175
Размер потока : 1,93 Гбайт (88%)
Библиотека кодирования : XviD 73

Аудио
Идентификатор : 1
Формат : MPEG Audio
Версия формата : Version 1
Профиль формата : Layer 3
Идентификатор кодека : 55
Идентификатор кодека/Подсказка : MP3
Продолжительность : 2 ч. 59 м.
Вид битрейта : Постоянный
Битрейт : 192 Кбит/сек
Каналы : 2 канала
Частота : 48,0 КГц
Метод сжатия : С потерями
Размер потока : 246 Мбайт (11%)
Выравнивание : Соединение по промежуткам
Продолжительность промежутка : 40 мс. (1,00 видеокадр)
Время предзагрузки промежутка : 504 мс.
Библиотека кодирования : LAME3.99r
Настройки программы : -m s -V 4 -q 2 -lowpass 18.6 -b 192



Релиз от:


_________________
Проголосуй за трекер Открытый торрент трекер - RUS-MEDIA.ORG

Проголосуй Открытый торрент трекер - RUS-MEDIA.ORG


Вернуться к началу
 Профиль Отправить личное сообщение  
 
   Похожие торренты   Автор   Торрент   Размер 
В этой теме нет новых непрочитанных сообщений. Клуб домашних детективов / Clubhouse Detectives [детектив, приключения, семейный, 1996] DVDRip, Avo

salma3

9 | 3

1.48 ГБ

В этой теме нет новых непрочитанных сообщений. Гюнтер и газетная мафия / Brigade kids [комедия, приключения, семейный, 1996] DVDRip, Avo

salma3

35 | 13

1.09 ГБ

В этой теме нет новых непрочитанных сообщений. Маленькая принцесса / A Little Princess [фэнтези, драма, семейный, 1996] WEBRip, Mvo

salma3

10 | 1

1.45 ГБ

В этой теме нет новых непрочитанных сообщений. Тарзан: Героические приключения / Tarzan: The Epic Adventures / / 1 сезон 1-22 серии из 22 [Приключения, фэнтези, экранизация, 1996-2000] WEB-DLRip, Mvo

salma3

98 | 47

12.08 ГБ

В этой теме нет новых непрочитанных сообщений. Аляска / Alaska [Приключения, семейный, 1996] WEB-DLRip 720p, Mvo

salma3

0 | 0

7.13 ГБ

В этой теме нет новых непрочитанных сообщений. 101 далматинец / 101 Dalmatians [комедия, приключения, семейный, 1996] WEB-DLRip-AVC, Dub

salma3

60 | 24

746.32 МБ

В этой теме нет новых непрочитанных сообщений. Летите домой / Fly Away Home [драма, приключения, семейный, 1996] Blu-ray 1080p, Dub+Sub

salma3

17 | 48

31.1 ГБ


Начать новую тему Ответить на тему  [ 1 сообщение ] 




Для Мосгорсуда, Роскомнадзора и рекламодателей:: mosgorsud-torrent[собачка]yandex.ru
cron