Торрент файл
скачать торрент магнет ссылка Добавлен: 22 ноя 2017, 21:38
Размер: 744.01 МБ
Сидеров: 29
Личеров: 9
Статус: (salma3)
Автор

СообщениеДобавлено: 22 ноя 2017, 21:38 

В сети
Супермодератор
Аватара пользователя
Дата регистрации:
15 фев 2012, 16:44
Возраст: 29
Спасибо: 7437 / 2147
Сообщения: 80368
Год выхода: 2015
Жанр: ужасы
Режиссер: Грегори Плоткин

В ролях: Крис Дж. Мюррэй, Бриттани Шоу, Айви Джордж, Дэн Гилл, Оливия Тейлор Дадли, Хлоя Ксенджери, Джесика Браун, Дон МакМанус, Майкл Кравич, Халли Фут

О фильме :
Молодые супруги Райан и Эмили, и их 6-летняя дочь Лейла переезжают в довольно симпатичный и тихий дом. В гараже они находят видеокамеру и коробку кассет. Но они даже не подозревали, что они увидят, когда заглянут в объектив камеры…



Выпущено: США
Продолжительность: 01:28:03
Озвучивание: Профессиональный (полное дублирование)

Файл
Формат: MKV
Качество: HDRip-AVC
Видео: MPEG-4 AVC, 752x424, ~ 1107 Кбит/с
Аудио: AAC-LC, 2 ch, ~ 80 Кбит/с
Субтитры: Русские (Форсированные, полные)

Общее
Уникальный идентификатор : 233214057793673383418852015212150873126 (0xAF7364CBDCB3F278A67D1624CB235C26)
Полное имя : D:MOVIESParanormalnoe.javlenie.5.2015.ExKinoRay.mkv
Формат : Matroska
Версия формата : Version 4 / Version 2
Размер файла : 744 Мбайт
Продолжительность : 1 ч. 28 м.
Общий поток : 1180 Кбит/сек
Дата кодирования : UTC 2017-11-22 11:43:11
Программа кодирования : mkvmerge v15.0.0 ('Duel with the Devil') 64-bit
Библиотека кодирования : libebml v1.3.5 + libmatroska v1.4.5

Видео
Идентификатор : 1
Формат : AVC
Формат/Информация : Advanced Video Codec
Профиль формата : High@L4.1
Параметр CABAC формата : Да
Параметр RefFrames формата : 10 кадров
Идентификатор кодека : V_MPEG4/ISO/AVC
Продолжительность : 1 ч. 28 м.
Битрейт : 1107 Кбит/сек
Ширина : 752 пикселя
Высота : 424 пикселя
Соотношение сторон : 16:9
Режим частоты кадров : Постоянный
Частота кадров : 23,976 (24000/1001) кадра/сек
Цветовое пространство : YUV
Субдискретизация насыщенности : 4:2:0
Битовая глубина : 8 бит
Тип развёртки : Прогрессивная
Бит/(Пиксели*Кадры) : 0.145
Размер потока : 692 Мбайт (93%)
Библиотека кодирования : x264 core 152 r2851 ba24899
Настройки программы : cabac=1 / ref=10 / deblock=1:-3:-2 / analyse=0x3:0x133 / me=umh / subme=11 / psy=1 / psy_rd=1.00:0.15 / mixed_ref=1 / me_range=32 / chroma_me=1 / trellis=2 / 8x8dct=1 / cqm=0 / deadzone=21,11 / fast_pskip=0 / chroma_qp_offset=-3 / threads=6 / lookahead_threads=1 / sliced_threads=0 / nr=0 / decimate=0 / interlaced=0 / bluray_compat=0 / constrained_intra=0 / bframes=10 / b_pyramid=2 / b_adapt=2 / b_bias=0 / direct=3 / weightb=1 / open_gop=0 / weightp=2 / keyint=240 / keyint_min=23 / scenecut=40 / intra_refresh=0 / rc_lookahead=40 / rc=2pass / mbtree=0 / bitrate=1107 / ratetol=1.0 / qcomp=0.60 / qpmin=0 / qpmax=69 / qpstep=4 / cplxblur=20.0 / qblur=0.5 / vbv_maxrate=50000 / vbv_bufsize=62500 / nal_hrd=none / filler=0 / ip_ratio=1.40 / pb_ratio=1.30 / aq=1:1.00
Default : Да
Forced : Нет

Аудио
Идентификатор : 2
Формат : AAC
Формат/Информация : Advanced Audio Codec
Профиль формата : LC
Идентификатор кодека : A_AAC
Продолжительность : 1 ч. 28 м.
Битрейт : 80,0 Кбит/сек
Каналы : 2 канала
Расположение каналов : Front: L R
Частота : 48,0 КГц
Частота кадров : 46,875 кадров/сек (1024 SPF)
Метод сжатия : С потерями
Задержка видео : 9 мс.
Размер потока : 50,4 Мбайт (7%)
Default : Да
Forced : Нет

Текст #1
Идентификатор : 3
Формат : UTF-8
Идентификатор кодека : S_TEXT/UTF8
Идентификатор кодека/Информация : UTF-8 Plain Text
Продолжительность : 1 ч. 24 м.
Битрейт : 1 бит/сек
ElementCount : 11
Размер потока : 639 байт (0%)
Заголовок : Rus forced
Язык : Russian
Default : Да
Forced : Да

Текст #2
Идентификатор : 4
Формат : UTF-8
Идентификатор кодека : S_TEXT/UTF8
Идентификатор кодека/Информация : UTF-8 Plain Text
Продолжительность : 1 ч. 24 м.
Битрейт : 90 бит/сек
ElementCount : 1107
Размер потока : 55,7 Кбайт (0%)
Заголовок : Rus full
Язык : Russian
Default : Нет
Forced : Нет

Меню
00:00:00.000 : :Chapter 01
00:01:56.074 : :Chapter 02
00:09:23.312 : :Chapter 03
00:17:33.177 : :Chapter 04
00:24:11.491 : :Chapter 05
00:29:08.288 : :Chapter 06
00:36:40.990 : :Chapter 07
00:42:59.451 : :Chapter 08
00:49:04.441 : :Chapter 09
00:56:20.668 : :Chapter 10
01:04:23.609 : :Chapter 11
01:11:25.322 : :Chapter 12
01:22:39.120 : :Chapter 13



Релиз от:


_________________
Проголосуй за трекер Открытый торрент трекер - RUS-MEDIA.ORG

Проголосуй Открытый торрент трекер - RUS-MEDIA.ORG


Вернуться к началу
 Профиль Отправить личное сообщение  
 
   Похожие торренты   Автор   Торрент   Размер 
В этой теме нет новых непрочитанных сообщений. Паранормальное явление 5: Призраки в 3D / Paranormal Activity: The Ghost Dimension [ужасы, 2015] HDRip, dub [iTunes]

Dracon

313 | 8

1.37 ГБ

В этой теме нет новых непрочитанных сообщений. Паранормальное явление 5: Призраки в 3D / Paranormal Activity: The Ghost Dimension [ужасы, 2015] BDRemux, Dub+Sub [2D | 3D-Video | Театральная версия | iTunes]

Dracon

66 | 47

28.88 ГБ

В этой теме нет новых непрочитанных сообщений. Паранормальное явление 5: Призраки в 3D / Paranormal Activity: The Ghost Dimension (Грегори Плоткин) [ужасы, 2015] BDRip 720p, dub [iTunes]

Dracon

549 | 51

4.44 ГБ

В этой теме нет новых непрочитанных сообщений. Паранормальное явление 5: Призраки в 3D / Paranormal Activity: The Ghost Dimension (Грегори Плоткин) [ужасы, 2015] BDRip 1080p, dub [iTunes]

Dracon

98 | 34

8.36 ГБ

В этой теме нет новых непрочитанных сообщений. Паранормальное явление 5: Призраки в 3D / Paranormal Activity: The Ghost Dimension (Грегори Плоткин) [Ужасы, 2015] BDRip 1080p, dub [3D-Video | Чистый звук]

Dracon

812 | 173

9.31 ГБ

В этой теме нет новых непрочитанных сообщений. Паранормальное явление 3 / Paranormal Activity 3 [ужасы, триллер, 2011] HDRip-AVC, Dub

salma3

27 | 5

745.55 МБ

В этой теме нет новых непрочитанных сообщений. Паранормальное явление / Paranormal Activity [ужасы, триллер, 2007] HDRip-AVC, Dub

salma3

37 | 8

746.61 МБ


Начать новую тему Ответить на тему  [ 1 сообщение ] 




Для Мосгорсуда, Роскомнадзора и рекламодателей:: mosgorsud-torrent[собачка]yandex.ru
cron