Торрент файл
скачать торрент магнет ссылка Добавлен: 26 ноя 2017, 21:55
Размер: 746.94 МБ
Сидеров: 72
Личеров: 6
Статус: (salma3)
Автор

СообщениеДобавлено: 26 ноя 2017, 21:55 

Не в сети
Супермодератор
Аватара пользователя
Дата регистрации:
15 фев 2012, 16:44
Возраст: 29
Спасибо: 7420 / 2147
Сообщения: 79751
Год выхода: 2010
Жанр: боевик, драма, криминал
Режиссер: Ришар Берри

В ролях: Жан Рено, Кад Мерад, Жан-Пьер Дарруссен, Марина Фоис, Джои Старр, Ришар Берри, Венантино Венантини, Клоди Жансак, Жозефин Берри, Макс Бесетт де Малглейв

О фильме :
Шарль Матей — один из крестных отцов Марселя. Он решает отойти от дел и жить на покое, ведь ему немало лет, а за спиной слишком бурная жизнь. Но компаньоны против такого поворота событий. На него совершают жестокое покушение, не оставляя ему ни одного шанса. Расстрелянного коллегами в упор, Шарля доставляют в больницу и извлекают из его тела 22 пули… Но каким-то чудом он остается жив. Теперь он жаждет отомстить своим некогда друзьям. И его месть будет не менее кровава и безжалостна.



Страна: Франция
Продолжительность: 01:57:00
Перевод: Профессиональный (полное дублирование) Ren-Tv

Файл
Формат: MKV
Качество: BDRip-AVC
Видео: MPEG-4 AVC, 768x328, ~ 814 Кбит/с
Аудио: AAC-LC, 2 ch, ~ 76 Кбит/с
Субтитры: Русские, английские

Общее
Уникальный идентификатор : 192460237001465347956909893830951471070 (0x90CA7E4C7AFCFD219903496BC67E87DE)
Полное имя : D:MOVIESLimmortel.2010.ExKinoRay.mkv
Формат : Matroska
Версия формата : Version 4 / Version 2
Размер файла : 747 Мбайт
Продолжительность : 1 ч. 57 м.
Общий поток : 892 Кбит/сек
Дата кодирования : UTC 2017-11-26 13:03:18
Программа кодирования : mkvmerge v15.0.0 ('Duel with the Devil') 64-bit
Библиотека кодирования : libebml v1.3.5 + libmatroska v1.4.5

Видео
Идентификатор : 1
Формат : AVC
Формат/Информация : Advanced Video Codec
Профиль формата : High@L4.1
Параметр CABAC формата : Да
Параметр RefFrames формата : 10 кадров
Идентификатор кодека : V_MPEG4/ISO/AVC
Продолжительность : 1 ч. 57 м.
Битрейт : 814 Кбит/сек
Ширина : 768 пикселей
Высота : 328 пикселей
Соотношение сторон : 2,35:1
Режим частоты кадров : Постоянный
Частота кадров : 24,000 кадра/сек
Цветовое пространство : YUV
Субдискретизация насыщенности : 4:2:0
Битовая глубина : 8 бит
Тип развёртки : Прогрессивная
Бит/(Пиксели*Кадры) : 0.135
Размер потока : 681 Мбайт (91%)
Библиотека кодирования : x264 core 152 r2851 ba24899
Настройки программы : cabac=1 / ref=10 / deblock=1:-2:-2 / analyse=0x3:0x133 / me=umh / subme=11 / psy=1 / psy_rd=1.00:0.03 / mixed_ref=1 / me_range=32 / chroma_me=1 / trellis=2 / 8x8dct=1 / cqm=0 / deadzone=21,11 / fast_pskip=0 / chroma_qp_offset=-3 / threads=6 / lookahead_threads=1 / sliced_threads=0 / nr=0 / decimate=0 / interlaced=0 / bluray_compat=0 / constrained_intra=0 / bframes=10 / b_pyramid=2 / b_adapt=2 / b_bias=0 / direct=3 / weightb=1 / open_gop=0 / weightp=2 / keyint=240 / keyint_min=23 / scenecut=40 / intra_refresh=0 / rc_lookahead=40 / rc=2pass / mbtree=0 / bitrate=814 / ratetol=1.0 / qcomp=0.60 / qpmin=0 / qpmax=69 / qpstep=4 / cplxblur=20.0 / qblur=0.5 / vbv_maxrate=50000 / vbv_bufsize=62500 / nal_hrd=none / filler=0 / ip_ratio=1.40 / pb_ratio=1.30 / aq=1:1.00
Default : Да
Forced : Нет

Аудио
Идентификатор : 2
Формат : AAC
Формат/Информация : Advanced Audio Codec
Профиль формата : LC
Идентификатор кодека : A_AAC
Продолжительность : 1 ч. 57 м.
Битрейт : 76,0 Кбит/сек
Каналы : 2 канала
Расположение каналов : Front: L R
Частота : 48,0 КГц
Частота кадров : 46,875 кадров/сек (1024 SPF)
Метод сжатия : С потерями
Задержка видео : 9 мс.
Размер потока : 63,6 Мбайт (9%)
Default : Да
Forced : Нет

Текст #1
Идентификатор : 3
Формат : UTF-8
Идентификатор кодека : S_TEXT/UTF8
Идентификатор кодека/Информация : UTF-8 Plain Text
Продолжительность : 1 ч. 49 м.
Битрейт : 82 бит/сек
ElementCount : 1189
Размер потока : 66,3 Кбайт (0%)
Заголовок : русские
Язык : Russian
Default : Нет
Forced : Нет

Текст #2
Идентификатор : 4
Формат : UTF-8
Идентификатор кодека : S_TEXT/UTF8
Идентификатор кодека/Информация : UTF-8 Plain Text
Продолжительность : 1 ч. 54 м.
Битрейт : 40 бит/сек
ElementCount : 1170
Размер потока : 34,2 Кбайт (0%)
Заголовок : английские
Язык : English
Default : Нет
Forced : Нет



Релиз от:


_________________
Проголосуй за трекер Открытый торрент трекер - RUS-MEDIA.ORG

Проголосуй Открытый торрент трекер - RUS-MEDIA.ORG


Вернуться к началу
 Профиль Отправить личное сообщение  
 
   Похожие торренты   Автор   Торрент   Размер 
В этой теме нет новых непрочитанных сообщений. 22 пули: Бессмертный / L'immortel [боевик, драма, криминал, 2010] BDRip 720p, Dub

salma3

158 | 14

4.88 ГБ

В этой теме нет новых непрочитанных сообщений. 22 пули: Бессмертный / L'immortel [боевик, драма, криминал, 2010] BDRip 1080p, Dub

salma3

48 | 26

13.23 ГБ

В этой теме нет новых непрочитанных сообщений. 22 пули: Бессмертный / 22 Bullets / L'immortel [Боевик, драма, криминал, 2010] BDRip, Dub [Лицензия]

salma3

0 | 0

1.46 ГБ

В этой теме нет новых непрочитанных сообщений. 22 пули: Бессмертный / 22 Bullets / L'immortel [Боевик, драма, криминал, 2010] BDRip, Dub [Лицензия]

salma3

0 | 0

2.18 ГБ

В этой теме нет новых непрочитанных сообщений. 22 пули: Бессмертный / L'immortel (Ришар Берри) [2010, боевик, драма, криминал, BDRip, 720p]

marya111

0 | 2

6.87 ГБ

В этой теме нет новых непрочитанных сообщений. 22 пули: Бессмертный / L'immortel (Ришар Берри) [2010, Боевик, драма, криминал, HQRip-AVC]

marya111

0 | 0

2.18 ГБ

В этой теме нет новых непрочитанных сообщений. Быстрее пули / Faster [боевик, триллер, драма, криминал, 2010 ] HDRip, Avo [Гаврилов]

salma3

2 | 4

1.45 ГБ


Начать новую тему Ответить на тему  [ 1 сообщение ] 




Для Мосгорсуда, Роскомнадзора и рекламодателей:: mosgorsud-torrent[собачка]yandex.ru
cron