Торрент файл
скачать торрент магнет ссылка Добавлен: 27 ноя 2017, 21:33
Размер: 745.56 МБ
Сидеров: 84
Личеров: 5
Статус: (salma3)
Автор

СообщениеДобавлено: 27 ноя 2017, 21:33 

В сети
Супермодератор
Аватара пользователя
Дата регистрации:
15 фев 2012, 16:44
Возраст: 29
Спасибо: 7401 / 2147
Сообщения: 78580
Год выхода: 1994
Жанр: Фантастика, боевик, триллер
Режиссер: Питер Хайамс

В ролях: Жан-Клод Ван Дамм, Миа Сара, Рон Сильвер, Брюс МакГилл, Глория Рубен, Скотт Беллис, Джейсон Шомбинг, Скотт Лоуренс, Кеннет Уэлш, Брент Вулси, Брэд Лори, Шэйн Келли, Ричард Фараси, Стивен Ламберт, Кевин МакНалти, Дж.Дж. Макаро, Ив Камерон, Дэвид Джэкокс, Майк Митчел

О фильме :
Передвижения во времени породили новый тип преступлений. Можно изменять события прошлого, контролировать финансовые рынки и даже уничтожать целые народы. Правительство США создает специальное полицейское подразделение - патруль времени. Продажный сенатор, рвущийся к президентскому креслу, отправляется в прошлое, чтобы изменить ход истории. Вслед за ним отправляется полицейский Макс Уокер. Его ждет не только смертельная опасность, но и сильнейшее искушение, ведь, попав в прошлое, он может предотвратить смерть любимой жены…



Страна: Канада, США, Япония
Продолжительность: 01:37:55
Перевод: Профессиональный (многоголосый, закадровый)

Файл
Формат: MKV
Качество: BDRip-AVC
Видео: MPEG-4 AVC, 768x324, ~ 987 Кбит/с
Аудио: AAC-LC, 2 ch, ~ 76 Кбит/с
Субтитры: Русские, английские

Общее
Уникальный идентификатор : 186119859382025591407568256126811789881 (0x8C05618C07034DB7863C0FBD806A5A39)
Полное имя : D:MOVIESTimecop.1994.ExKinoRay.mkv
Формат : Matroska
Версия формата : Version 4 / Version 2
Размер файла : 746 Мбайт
Продолжительность : 1 ч. 37 м.
Общий поток : 1065 Кбит/сек
Дата кодирования : UTC 2017-11-27 16:19:31
Программа кодирования : mkvmerge v15.0.0 ('Duel with the Devil') 64-bit
Библиотека кодирования : libebml v1.3.5 + libmatroska v1.4.5

Видео
Идентификатор : 1
Формат : AVC
Формат/Информация : Advanced Video Codec
Профиль формата : High@L4.1
Параметр CABAC формата : Да
Параметр RefFrames формата : 10 кадров
Идентификатор кодека : V_MPEG4/ISO/AVC
Продолжительность : 1 ч. 37 м.
Битрейт : 987 Кбит/сек
Ширина : 768 пикселей
Высота : 324 пикселя
Соотношение сторон : 2,40:1
Режим частоты кадров : Постоянный
Частота кадров : 23,976 (24000/1001) кадра/сек
Цветовое пространство : YUV
Субдискретизация насыщенности : 4:2:0
Битовая глубина : 8 бит
Тип развёртки : Прогрессивная
Бит/(Пиксели*Кадры) : 0.165
Размер потока : 691 Мбайт (93%)
Библиотека кодирования : x264 core 152 r2851 ba24899
Настройки программы : cabac=1 / ref=10 / deblock=1:-2:-2 / analyse=0x3:0x133 / me=umh / subme=11 / psy=1 / psy_rd=1.00:0.05 / mixed_ref=1 / me_range=32 / chroma_me=1 / trellis=2 / 8x8dct=1 / cqm=0 / deadzone=21,11 / fast_pskip=0 / chroma_qp_offset=-3 / threads=6 / lookahead_threads=1 / sliced_threads=0 / nr=0 / decimate=0 / interlaced=0 / bluray_compat=0 / constrained_intra=0 / bframes=10 / b_pyramid=2 / b_adapt=2 / b_bias=0 / direct=3 / weightb=1 / open_gop=0 / weightp=2 / keyint=240 / keyint_min=23 / scenecut=40 / intra_refresh=0 / rc_lookahead=40 / rc=2pass / mbtree=0 / bitrate=987 / ratetol=1.0 / qcomp=0.60 / qpmin=0 / qpmax=69 / qpstep=4 / cplxblur=20.0 / qblur=0.5 / vbv_maxrate=50000 / vbv_bufsize=62500 / nal_hrd=none / filler=0 / ip_ratio=1.40 / pb_ratio=1.30 / aq=1:1.00
Default : Да
Forced : Нет

Аудио
Идентификатор : 2
Формат : AAC
Формат/Информация : Advanced Audio Codec
Профиль формата : LC
Идентификатор кодека : A_AAC
Продолжительность : 1 ч. 37 м.
Битрейт : 76,0 Кбит/сек
Каналы : 2 канала
Расположение каналов : Front: L R
Частота : 48,0 КГц
Частота кадров : 46,875 кадров/сек (1024 SPF)
Метод сжатия : С потерями
Задержка видео : 9 мс.
Размер потока : 53,2 Мбайт (7%)
Default : Да
Forced : Нет

Текст #1
Идентификатор : 3
Формат : UTF-8
Идентификатор кодека : S_TEXT/UTF8
Идентификатор кодека/Информация : UTF-8 Plain Text
Продолжительность : 1 ч. 29 м.
Битрейт : 2 бит/сек
ElementCount : 21
Размер потока : 1,38 Кбайт (0%)
Заголовок : Форсированные
Язык : Russian
Default : Да
Forced : Да

Текст #2
Идентификатор : 4
Формат : UTF-8
Идентификатор кодека : S_TEXT/UTF8
Идентификатор кодека/Информация : UTF-8 Plain Text
Продолжительность : 1 ч. 32 м.
Битрейт : 99 бит/сек
ElementCount : 905
Размер потока : 67,2 Кбайт (0%)
Язык : Russian
Default : Нет
Forced : Нет

Текст #3
Идентификатор : 5
Формат : UTF-8
Идентификатор кодека : S_TEXT/UTF8
Идентификатор кодека/Информация : UTF-8 Plain Text
Продолжительность : 1 ч. 34 м.
Битрейт : 52 бит/сек
ElementCount : 972
Размер потока : 36,7 Кбайт (0%)
Язык : English
Default : Нет
Forced : Нет

Меню
00:00:00.000 : en:Main Titles: Gainsville, GA 1863
00:07:51.053 : en:There's Never Enough Time..
00:13:25.221 : en:Ruin in the Rain
00:15:39.271 : en:Wall Street October 30, 1929
00:22:49.534 : en:Justice in Time
00:24:07.863 : en:Trouble with the T.E.C.
00:34:07.086 : en:Killers for Company
00:39:00.588 : en:A Blast to the Past
00:43:38.240 : en:Back to 1994
00:47:14.790 : en:McComb's Future
01:01:00.156 : en:The Only Way Back
01:07:07.398 : en:The Fugitive From the Future
01:14:08.902 : en:A Fight for the Future
01:26:11.416 : en:McComb Gets Tougher
01:29:40.083 : en:The New Future
01:33:24.056 : en:"Time Won't Let Me"
01:37:47.862 : en:



Релиз от:


_________________
Проголосуй за трекер Открытый торрент трекер - RUS-MEDIA.ORG

Проголосуй Открытый торрент трекер - RUS-MEDIA.ORG


Вернуться к началу
 Профиль Отправить личное сообщение  
 
   Похожие торренты   Автор   Торрент   Размер 
В этой теме нет новых непрочитанных сообщений. Патруль времени / Timecop [фантастика, боевик, триллер, 1994] BDRip 720p, Mvo

salma3

0 | 0

8 ГБ

В этой теме нет новых непрочитанных сообщений. Патруль времени / Timecop [Фантастика, боевик, 1994] BDRip 1080p, Avo [Яроцкий]

salma3

0 | 0

8.09 ГБ

В этой теме нет новых непрочитанных сообщений. Патруль времени / Timecop [Фантастика, боевик, триллер, 1994] BDRemux 1080p, Mvo

salma3

0 | 0

24.07 ГБ

В этой теме нет новых непрочитанных сообщений. Патруль времени / Timecop [Фантастика, боевик, триллер, 1994] BDRemux 1080p, Mvo

salma3

2 | 0

22.18 ГБ

В этой теме нет новых непрочитанных сообщений. Побег невозможен / No Escape / Escape from absolom [Фантастика, боевик, триллер, 1994] BDRip 1080p, Mvo

salma3

0 | 0

12.37 ГБ

В этой теме нет новых непрочитанных сообщений. Призрачный патруль / R.I.P.D. [Фантастика, боевик, фэнтези, 2013] BDRemux 1080p, Dub

salma3

0 | 0

25.9 ГБ

В этой теме нет новых непрочитанных сообщений. Горец 3: Чародей / Highlander III: The Sorcerer [Фантастика, Боевик, 1994] BDRip 720p, Mvo

salma3

0 | 0

5.76 ГБ


Начать новую тему Ответить на тему  [ 1 сообщение ] 




Для Мосгорсуда, Роскомнадзора и рекламодателей:: mosgorsud-torrent[собачка]yandex.ru
cron