Торрент файл
скачать торрент магнет ссылка Добавлен: 14 дек 2017, 17:10
Размер: 2.18 ГБ
Сидеров: 25
Личеров: 3
Статус: (salma3)
Автор

СообщениеДобавлено: 14 дек 2017, 17:10 

В сети
Супермодератор
Аватара пользователя
Дата регистрации:
15 фев 2012, 16:44
Возраст: 29
Спасибо: 7400 / 2147
Сообщения: 78259
Год выхода: 2009
Жанр: мелодрама, комедия
Режиссер: Роберт Лукетич

В ролях: Кэтрин Хайгл, Джерард Батлер, Бри Тёрнер, Эрик Винтер, Ник Сирси, Джесси Д. Гойнс, Шерил Хайнс, Джон Майкл Хиггинс, Ной Мэтьюз, Бонни Соммервиль

О фильме:
Как известно, отношения к жизни и жизненным ценностям у мужчин и женщин разные. Они как будто, живут на разных планетах. Между ними идет настоящая война полов - кто кого? Победит ли мужчина со своей логикой, или одержат победу женские идеалы? Эбби - продюсер утреннего телешоу. У нее серьезное отношение к жизни. Она мечтает о встрече с идеальным мужчиной, который бы ценил в ней порядочность и моральную устойчивость. Майк - скандальный ведущий с жизненным кредо — "секс, наркотики и рок-н-ролл". Он не признает равенство полов и считает, что женщины должны знать, что на уме мужчин - только секс! Они не переносят друг друга. Но волею случая, Майк решает оказать Эбби помощь найти свою любовь...



Страна: США
Продолжительность: 01:36:06
Перевод: Профессиональный (дублированный) Blu-ray CEE

Файл
Качество: WEB-DLRip-AVC
Формат: Matroska
Видео: 1024x576 at 23.976 fps, High@L4.1, ~2350 kbps
Аудио#1: Russian: 48 kHz, AC3, 3/2 (L,C,R,l,r) + LFE ch, ~448 kbps
Аудио#2: English: 48 kHz, AC3, 3/2 (L,C,R,l,r) + LFE ch, ~448 kbps
Субтитры: Russian, Ukrainian, English

**Исходник видео - WEB-DL Amazon.
**Open Matte версия фильма имеет большее наполнение кадра, по сравнению с Blu-ray.

General
Unique ID : 122244709877721506433698048239534693345 (0x5BF77987E1C4D41A4E486CF98AF15BE1)
Complete name : F:FILMSГолая правда.2009.Open mate.WEB_DLRIP-AVC.[-=DoMiNo=-].mkv
Format : Matroska
Format version : Version 4 / Version 2
File size : 2.18 GiB
Duration : 1 h 36 min
Overall bit rate : 3 249 kb/s
Movie name : Голая правда
Deion : "Мужские ценности против Женских идеалов" / / Как известно, отношения к жизни и жизненным ценностям у мужчин и женщин разные. Они как будто, живут на разных планетах. Между ними идет настоящая война полов - кто кого? Победит ли мужчина со своей логикой, или одержат победу женские идеалы? / / Эбби - продюсер утреннего телешоу. У нее серьезное отношение к жизни. Она мечтает о встрече с идеальным мужчиной, который бы ценил в ней порядочность и моральную устойчивость. / Майк - скандальный ведущий с жизненным кредо — "секс, наркотики и рок-н-ролл". Он не признает равенство полов и считает, что женщины должны знать, что на уме мужчин - только секс! / / Они не переносят друг друга. Но волею случая, Майк решает оказать Эбби помощь найти свою любовь...
Writing application : XviD4PSP 7.0.432 DAILY
Writing library : Lavf57.71.100
ErrorDetectionType : Per level 1
Attachments : poster.jpg
COMPOSER : Аарон Цигман
COUNTRY : США
DATE : 2009
DIRECTOR : Роберт Лукетич
ENCODING_INFO : MATROSKA,WEBM > MKV Пользовательский / H264 > X264 VBR-2P 2350kbps Пользовательский / AC3 > AC3 CBR 448kbps / EAC3 > AC3 CBR 448kbps
GENRE : мелодрама, комедия
HD_VIDEO : 1
IMDB_RATING : 6.50
ITUNEXTC : mpaa|R|400|
Language : und
MEDIA_TYPE : 9
ORIGINAL_TITLE : The Ugly Truth
PRODUCER : Кимберли Ди Бонавентура, Гари Лучези, Дебора Джелин Ньюмайер, Стивен Ретер, Том Розенберг, Кэтрин Хайгл, Нэнси Хейл, Райан Кавана, Андре Ламал, Карен МакКулла, Эрик Рейд, Кирстен Смит
RATING : 7.562
WRITER : Николь Истмэн, Карен МакКулла, Кирстен Смит

Video
ID : 1
Format : AVC
Format/Info : Advanced Video Codec
Format profile : High@L4.1
Format settings : CABAC / 10 Ref Frames
Format settings, CABAC : Yes
Format settings, ReFrames : 10 frames
Codec ID : V_MPEG4/ISO/AVC
Duration : 1 h 36 min
Bit rate : 2 350 kb/s
Width : 1 024 pixels
Height : 576 pixels
Display aspect ratio : 16:9
Frame rate mode : Constant
Frame rate : 23.976 (24000/1001) FPS
Color space : YUV
Chroma subsampling : 4:2:0
Bit depth : 8 bits
Scan type : Progressive
Bits/(Pixel*Frame) : 0.166
Stream size : 1.54 GiB (70%)
Title : RIP_BY_-=DoMiNo=-
Writing library : x264 core 152 r2851M ba24899
Encoding settings : cabac=1 / ref=10 / deblock=1:-3:-3 / analyse=0x3:0x133 / me=umh / subme=10 / psy=1 / psy_rd=1.00:0.05 / mixed_ref=1 / me_range=32 / chroma_me=1 / trellis=2 / 8x8dct=1 / cqm=0 / deadzone=21,11 / fast_pskip=1 / chroma_qp_offset=-3 / threads=6 / lookahead_threads=1 / sliced_threads=0 / nr=0 / decimate=1 / interlaced=0 / bluray_compat=0 / constrained_intra=0 / bframes=9 / b_pyramid=2 / b_adapt=2 / b_bias=0 / direct=3 / weightb=1 / open_gop=0 / weightp=2 / keyint=240 / keyint_min=24 / scenecut=40 / intra_refresh=0 / rc_lookahead=60 / rc=2pass / mbtree=1 / bitrate=2350 / ratetol=1.0 / qcomp=0.65 / qpmin=0 / qpmax=69 / qpstep=4 / cplxblur=20.0 / qblur=0.5 / ip_ratio=1.40 / aq=1:1.00
Language : English
Default : Yes
Forced : No
Color range : Limited
Color primaries : BT.709
Transfer characteristics : BT.709
Matrix coefficients : BT.709

Audio #1
ID : 2
Format : AC-3
Format/Info : Audio Coding 3
Codec ID : A_AC3
Duration : 1 h 36 min
Bit rate mode : Constant
Bit rate : 448 kb/s
Channel(s) : 6 channels
Channel positions : Front: L C R, Side: L R, LFE
Sampling rate : 48.0 kHz
Frame rate : 31.250 FPS (1536 SPF)
Bit depth : 16 bits
Compression mode : Lossy
Stream size : 308 MiB (14%)
Title : AC3 5.1 448 Kbps (Дубляж - BluRay CEE)
Language : Russian
Service kind : Complete Main
Default : Yes
Forced : No

Audio #2
ID : 3
Format : AC-3
Format/Info : Audio Coding 3
Codec ID : A_AC3
Duration : 1 h 36 min
Bit rate mode : Constant
Bit rate : 448 kb/s
Channel(s) : 6 channels
Channel positions : Front: L C R, Side: L R, LFE
Sampling rate : 48.0 kHz
Frame rate : 31.250 FPS (1536 SPF)
Bit depth : 16 bits
Compression mode : Lossy
Stream size : 308 MiB (14%)
Title : AC3 5.1 448 Kbps (Оригинал - Amazon)
Language : English
Service kind : Complete Main
Default : No
Forced : No

Text #1
ID : 4
Format : UTF-8
Codec ID : S_TEXT/UTF8
Codec ID/Info : UTF-8 Plain Text
Title : Captions
Language : Russian
Default : Yes
Forced : No

Text #2
ID : 5
Format : UTF-8
Codec ID : S_TEXT/UTF8
Codec ID/Info : UTF-8 Plain Text
Title : Full
Language : Russian
Default : No
Forced : No

Text #3
ID : 6
Format : UTF-8
Codec ID : S_TEXT/UTF8
Codec ID/Info : UTF-8 Plain Text
Title : Captions
Language : Ukrainian
Default : No
Forced : No

Text #4
ID : 7
Format : UTF-8
Codec ID : S_TEXT/UTF8
Codec ID/Info : UTF-8 Plain Text
Title : Full, BluRay
Language : English
Default : No
Forced : No

Text #5
ID : 8
Format : UTF-8
Codec ID : S_TEXT/UTF8
Codec ID/Info : UTF-8 Plain Text
Title : SDH, Full, Amazon
Language : English
Default : No
Forced : No


_________________
Проголосуй за трекер Открытый торрент трекер - RUS-MEDIA.ORG

Проголосуй Открытый торрент трекер - RUS-MEDIA.ORG


Вернуться к началу
 Профиль Отправить личное сообщение  
 
   Похожие торренты   Автор   Торрент   Размер 
В этой теме нет новых непрочитанных сообщений. Голая правда / The Ugly Truth [мелодрама, комедия, 2009] WEB-DLRip, Dub [Open Matte]

salma3

54 | 14

1.45 ГБ

В этой теме нет новых непрочитанных сообщений. Бар «Гадкий койот» / Coyote Ugly [драма, мелодрама, комедия, 2000] WEB-DL 1080p, Dub [Theatrical Cut] [Open Matte]

salma3

2 | 18

9.95 ГБ

В этой теме нет новых непрочитанных сообщений. Мальчишник в Вегасе / The Hangover [комедия, 2009] WEB-DLRip-AVC, Dub [Theatrical Cut] [Open Matte]

salma3

2 | 2

2.18 ГБ

В этой теме нет новых непрочитанных сообщений. Ноттинг Хилл / Notting Hill [мелодрама, комедия, 1999] WEB-DLRip-AVC, Dub [Open Matte]

salma3

0 | 0

2.36 ГБ

В этой теме нет новых непрочитанных сообщений. История рыцаря / A Knight's Tale [Приключения, мелодрама, комедия, 2001] WEB-DLRip-AVC, Dub [Open Matte]

salma3

0 | 0

3.1 ГБ

В этой теме нет новых непрочитанных сообщений. Практическая магия / Practical Magic [фэнтези, драма, мелодрама, комедия, 1998] WEB-DLRip-AVC, Dub [Open Matte]

salma3

22 | 0

2.18 ГБ

В этой теме нет новых непрочитанных сообщений. Ведьмина гора / Race to Witch Mountain [фантастика, триллер, комедия, 2009] WEB-DLRip-AVC, Dub [Open Matte]

salma3

0 | 0

2.42 ГБ


Начать новую тему Ответить на тему  [ 1 сообщение ] 




Для Мосгорсуда, Роскомнадзора и рекламодателей:: mosgorsud-torrent[собачка]yandex.ru
cron