Торрент файл
скачать торрент магнет ссылка Добавлен: 23 дек 2017, 17:36
Размер: 1.45 ГБ
Сидеров: 18
Личеров: 6
Статус: (salma3)
Автор

СообщениеДобавлено: 23 дек 2017, 17:36 

Не в сети
Супермодератор
Аватара пользователя
Дата регистрации:
15 фев 2012, 16:44
Возраст: 29
Спасибо: 7435 / 2147
Сообщения: 80359
Год выхода: 1982
Жанр: драма
Режиссер: Сидни Люмет

В ролях: Пол Ньюман, Шарлотта Рэмплинг, Джек Уорден, Джеймс Мейсон, Майло О’Ши, Линдси Краус, Эд Биннс, Джули Бовассо, Роксанна Харт, Джеймс Хэнди, Брюс Уиллис

О фильме:
Когда-то Фрэнк Гэлвин был хорошим адвокатом. Но дружба с бутылкой до добра не доводит. И теперь он — консультант по юридическим вопросам в похоронной конторе.

Бывший коллега Микки Моррисей, не забывший о способностях Фрэнка, подкидывает ему интересное дело. Это шанс попробовать снова встать на ноги и попытаться занять достойное место в жизни.

Молодая женщина, получившая во время родов анестезию, превращается в прикованную к постели тяжелобольную. Ее родственники хотят подать в суд на респектабельную бостонскую больницу и на церковь, которой она принадлежит, чтобы получить компенсацию за причиненный физический и моральный ущерб.

Фрэнк уверен, что сторона-ответчик виновна, но ни за что не признает медицинскую ошибку…



Выпущено: США
Продолжительность: 02:08:58
Перевод: Профессиональный (полное дублирование) Ленфильм |СССР|
Субтитры: русские, английские, украинские

Файл:
Формат: MKV
Качество: BDRip-AVC
Видео: 958x520 (1.85:1), 23.976 fps, High@L4.1, ~1513 kbps
Аудио: 48 kHz, AC3 Dolby Digital, 2/0 (L,R) ch, ~96 kbps



General
Unique ID : 211954438049071022201954581815040243975 (0x9F74F09DD70B5300B3378AF788C97907)
Complete name : D:Вердикт.(1982).BDRIP-AVC.[-=DoMiNo=-].mkv
Format : Matroska
Format version : Version 4 / Version 2
File size : 1.45 GiB
Duration : 2 h 8 min
Overall bit rate : 1 610 kb/s
Movie name : Вердикт
Deion : Когда-то Фрэнк Гэлвин был хорошим адвокатом. Но дружба с бутылкой до добра не доводит. И теперь он — консультант по юридическим вопросам в похоронной конторе. / / Бывший коллега Микки Моррисей, не забывший о способностях Фрэнка, подкидывает ему интересное дело. Это шанс попробовать снова встать на ноги и попытаться занять достойное место в жизни. / / Молодая женщина, получившая во время родов анестезию, превращается в прикованную к постели тяжелобольную. Ее родственники хотят подать в суд на респектабельную бостонскую больницу и на церковь, которой она принадлежит, чтобы получить компенсацию за причиненный физический и моральный ущерб. / / Фрэнк уверен, что сторона-ответчик виновна, но ни за что не признает медицинскую ошибку…
Encoded date : UTC 2017-12-23 13:25:40
Writing application : mkvmerge v18.0.0 ('Apricity') 64-bit
Writing library : libebml v1.3.5 + libmatroska v1.4.8 / Lavf57.71.100
Attachments : poster.jpg
COMPOSER : Джонни Мэндел
COUNTRY : США
DATE : 1982
DIRECTOR : Сидни Люмет
ENCODING_INFO : BluRay > MKV Пользовательский / H264 > X264 VBR-2P 1513kbps Пользовательский / AC3 > COPY Безопасное
GENRE : драма
HD_VIDEO : 1
IMDB_RATING : 7.80
ITUNEXTC : mpaa|R|400|
Language : und
MEDIA_TYPE : 9
ORIGINAL_TITLE : The Verdict
PRODUCER : Дэвид Браун, Ричард Д. Занук, Бертт Харрис
RATING : 7.557
WRITER : Дэвид Мэмет, Джей Прессон Аллен, Бэрри Рид

Video
ID : 1
Format : AVC
Format/Info : Advanced Video Codec
Format profile : High@L4.1
Format settings : CABAC / 11 Ref Frames
Format settings, CABAC : Yes
Format settings, ReFrames : 11 frames
Codec ID : V_MPEG4/ISO/AVC
Duration : 2 h 8 min
Bit rate : 1 513 kb/s
Width : 958 pixels
Height : 520 pixels
Display aspect ratio : 1.85:1
Frame rate mode : Constant
Frame rate : 23.976 (24000/1001) FPS
Color space : YUV
Chroma subsampling : 4:2:0
Bit depth : 8 bits
Scan type : Progressive
Bits/(Pixel*Frame) : 0.127
Stream size : 1.36 GiB (94%)
Title : RIP_BY_-=DoMiNo=-
Writing library : x264 core 152 r2851M ba24899
Encoding settings : cabac=1 / ref=11 / deblock=1:-3:-3 / analyse=0x3:0x133 / me=umh / subme=11 / psy=1 / psy_rd=1.00:0.05 / mixed_ref=1 / me_range=32 / chroma_me=1 / trellis=2 / 8x8dct=1 / cqm=0 / deadzone=21,11 / fast_pskip=1 / chroma_qp_offset=-3 / threads=6 / lookahead_threads=1 / sliced_threads=0 / nr=0 / decimate=1 / interlaced=0 / bluray_compat=0 / constrained_intra=0 / bframes=12 / b_pyramid=2 / b_adapt=2 / b_bias=0 / direct=3 / weightb=1 / open_gop=0 / weightp=2 / keyint=240 / keyint_min=24 / scenecut=40 / intra_refresh=0 / rc_lookahead=60 / rc=2pass / mbtree=1 / bitrate=1513 / ratetol=1.0 / qcomp=0.65 / qpmin=0 / qpmax=69 / qpstep=4 / cplxblur=20.0 / qblur=0.5 / ip_ratio=1.40 / aq=1:1.00
Language : English
Default : Yes
Forced : No

Audio
ID : 2
Format : AC-3
Format/Info : Audio Coding 3
Codec ID : A_AC3
Duration : 2 h 8 min
Bit rate mode : Constant
Bit rate : 96.0 kb/s
Channel(s) : 2 channels
Channel positions : Front: L R
Sampling rate : 48.0 kHz
Frame rate : 31.250 FPS (1536 SPF)
Bit depth : 16 bits
Compression mode : Lossy
Stream size : 88.0 MiB (6%)
Title : DUB
Language : Russian
Service kind : Complete Main
Default : Yes
Forced : No

Text #1
ID : 3
Format : UTF-8
Codec ID : S_TEXT/UTF8
Codec ID/Info : UTF-8 Plain Text
Duration : 2 h 4 min
Bit rate : 98 b/s
Count of elements : 1611
Stream size : 90.6 KiB (0%)
Title : RUS
Language : Russian
Default : No
Forced : No

Text #2
ID : 4
Format : UTF-8
Codec ID : S_TEXT/UTF8
Codec ID/Info : UTF-8 Plain Text
Duration : 2 h 4 min
Bit rate : 97 b/s
Count of elements : 1617
Stream size : 89.7 KiB (0%)
Title : UKR
Language : Ukrainian
Default : No
Forced : No

Text #3
ID : 5
Format : UTF-8
Codec ID : S_TEXT/UTF8
Codec ID/Info : UTF-8 Plain Text
Duration : 2 h 2 min
Bit rate : 62 b/s
Count of elements : 1372
Stream size : 56.5 KiB (0%)
Title : ENG
Language : English
Default : No
Forced : No

Menu
00:00:00.000 : :Глава 1
00:01:40.851 : :Глава 2
00:11:03.538 : :Глава 3
00:15:40.565 : :Глава 4
00:17:13.241 : :Глава 5
00:19:38.344 : :Глава 6
00:23:07.176 : :Глава 7
00:25:15.639 : :Глава 8
00:31:40.565 : :Глава 9
00:35:56.612 : :Глава 10
00:42:05.231 : :Глава 11
00:47:00.359 : :Глава 12
00:51:14.989 : :Глава 13
00:55:47.094 : :Глава 14
00:58:48.900 : :Глава 15
01:03:15.291 : :Глава 16
01:05:43.565 : :Глава 17
01:10:10.288 : :Глава 18
01:12:46.529 : :Глава 19
01:16:15.070 : :Глава 20
01:20:22.109 : :Глава 21
01:27:01.550 : :Глава 22
01:29:47.799 : :Глава 23
01:30:57.869 : :Глава 24
01:32:47.270 : :Глава 25
01:39:16.993 : :Глава 26
01:42:25.348 : :Глава 27
01:44:07.491 : :Глава 28
01:47:32.905 : :Глава 29
01:59:47.472 : :Глава 30
02:03:40.413 : :Глава 31
02:06:53.272 : :Глава 32




_________________
Проголосуй за трекер Открытый торрент трекер - RUS-MEDIA.ORG

Проголосуй Открытый торрент трекер - RUS-MEDIA.ORG


Вернуться к началу
 Профиль Отправить личное сообщение  
 
   Похожие торренты   Автор   Торрент   Размер 
В этой теме нет новых непрочитанных сообщений. Вердикт / The Verdict [драма, 1982] BDRip, Dub

salma3

14 | 5

1.45 ГБ

В этой теме нет новых непрочитанных сообщений. Вердикт / The Verdict [драма, 1982] BDRip 720p, Mvo

salma3

31 | 15

4.35 ГБ

В этой теме нет новых непрочитанных сообщений. Вердикт за деньги / Runaway Jury [Триллер, Драма, 2003] Blu-ray EUR 1080p, Dub [Лицензия]

salma3

3 | 23

41.17 ГБ

В этой теме нет новых непрочитанных сообщений. Вердикт за деньги / Runaway Jury [триллер, драма, 2003] WEB-DL 1080p, Dub [Open Matte]

salma3

0 | 0

13.71 ГБ

В этой теме нет новых непрочитанных сообщений. Вердикт за деньги / Runaway Jury [триллер, драма, 2003] WEB-DLRip, Dub [Open Matte]

salma3

0 | 0

2.18 ГБ

В этой теме нет новых непрочитанных сообщений. Вердикт: Суд над МакМартинами / Indictment: The McMartin Trial [Драма, криминал, триллер, 1995] WEB-DLRip 720p, Mvo

salma3

0 | 0

6.23 ГБ

В этой теме нет новых непрочитанных сообщений. Поклонница / Der Fan [триллер, драма, 1982] BDRip, Avo

salma3

0 | 2

1.46 ГБ


Начать новую тему Ответить на тему  [ 1 сообщение ] 




Для Мосгорсуда, Роскомнадзора и рекламодателей:: mosgorsud-torrent[собачка]yandex.ru
cron