Торрент файл
скачать торрент магнет ссылка Добавлен: 06 янв 2018, 13:54
Размер: 3.68 ГБ
Сидеров: 108
Личеров: 26
Статус: (salma3)
Автор

СообщениеДобавлено: 06 янв 2018, 13:54 

Не в сети
Супермодератор
Аватара пользователя
Дата регистрации:
15 фев 2012, 16:44
Возраст: 29
Спасибо: 7400 / 2147
Сообщения: 78133
Год выхода: 1975
Жанр: Боевик, приключения, вестерн
Режиссер: Ричард Брукс

В ролях: Джин Хэкмен, Кэндис Берген, Джеймс Коберн, Бен Джонсон, Иэн Бэннен, Ян-Майкл Винсент, Роберт Доннер, Джин Уиллис, Марио Артеага, Дэбни Коулмэн, Джон МакЛайэм, Роберт Ф. Хой, Джерри Гэтлайн, Сэлли Керклэнд, Уолтер Скотт мл.

О фильме:
Начало ХХ века. Проводятся лошадиные скачки. Но не на ипподроме, а по пересечённой местности. Всадники несутся во всю прыть, стремясь покрыть расстояние в 600 миль в кратчайшие сроки. Кто-то пользуется любой возможностью помешать сопернику, кто-то, наоборот, готов всегда прийти на выручку, пусть даже и конкуренту...



Страна: США
Продолжительность: 01:37:40
Перевод: Профессиональный [многоголосый, закадровый]

Файл
Кодек: h.264
Качество: BDRip AVC
Видео: MPEG-4 AVC, 3500 Кбит/с, 1024x432, 23,976 кадр/с
Звук:
Русский (AC3, 2 ch, 192 Кбит/с) / Профессиональный многоголосый
Английский (AC3, 6 ch, 320 Кбит/с)
Субтитры: Нет

Семпл

General
Unique ID : 203749445714312961838564349540093373442 (0x9948B742F3994151B2FFD667DA63AC02)
Complete name : D:uTorrentPrikusi.pulju.1975.BDRip.AVC.MediaClub.mkv
Format : Matroska
Format version : Version 4 / Version 2
File size : 3.68 GiB
Duration : 2 h 11 min
Overall bit rate : 4 014 kb/s
Encoded date : UTC 2018-01-05 20:59:28 / UTC 2017-12-01T12:12:11Z
Writing application : mkvmerge v17.0.0 ('Be Ur Friend') 64-bit
Writing library : libebml v1.3.5 + libmatroska v1.4.8 / Lavf57.7.2

Video
ID : 1
Format : AVC
Format/Info : Advanced Video Codec
Format profile : High@L4.1
Format settings : CABAC / 14 Ref Frames
Format settings, CABAC : Yes
Format settings, RefFrames : 14 frames
Codec ID : V_MPEG4/ISO/AVC
Duration : 2 h 11 min
Bit rate : 3 500 kb/s
Width : 1 024 pixels
Height : 432 pixels
Display aspect ratio : 2.40:1
Frame rate mode : Constant
Frame rate : 23.976 (24000/1001) FPS
Color space : YUV
Chroma subsampling : 4:2:0
Bit depth : 8 bits
Scan type : Progressive
Bits/(Pixel*Frame) : 0.330
Stream size : 3.13 GiB (85%)
Title : BDRip by Silverok
Writing library : x264 core 148 r2708 86b7198
Encoding settings : cabac=1 / ref=14 / deblock=1:-3:-3 / analyse=0x3:0x113 / me=umh / subme=11 / psy=1 / psy_rd=1.00:0.10 / mixed_ref=1 / me_range=32 / chroma_me=1 / trellis=2 / 8x8dct=1 / cqm=0 / deadzone=21,11 / fast_pskip=1 / chroma_qp_offset=-3 / threads=12 / lookahead_threads=1 / sliced_threads=0 / nr=0 / decimate=0 / interlaced=0 / bluray_compat=0 / constrained_intra=0 / bframes=16 / b_pyramid=2 / b_adapt=1 / b_bias=0 / direct=1 / weightb=1 / open_gop=0 / weightp=2 / keyint=240 / keyint_min=24 / scenecut=40 / intra_refresh=0 / rc_lookahead=40 / rc=2pass / mbtree=1 / bitrate=3500 / ratetol=1.0 / qcomp=0.60 / qpmin=0 / qpmax=69 / qpstep=4 / cplxblur=20.0 / qblur=0.5 / vbv_maxrate=62500 / vbv_bufsize=78125 / nal_hrd=none / filler=0 / ip_ratio=1.40 / aq=1:1.00
Default : Yes
Forced : No
Color range : Limited
Color primaries : BT.709
Transfer characteristics : BT.709
Matrix coefficients : BT.709
Statistics Tags Issue : mkvmerge v17.0.0 ('Be Ur Friend') 64-bit 2018-01-05 20:59:28 / mkvmerge v17.0.0 ('Be Ur Friend') 64-bit 2018-01-05 20:59:28 / UTC 2017-12-01T12:12:11Z
FromStats_BitRate : 3499982
FromStats_Duration : 02:11:07.902000000
FromStats_FrameCount : 188640
FromStats_StreamSize : 3442190184

Audio #1
ID : 2
Format : AC-3
Format/Info : Audio Coding 3
Codec ID : A_AC3
Duration : 2 h 11 min
Bit rate mode : Constant
Bit rate : 192 kb/s
Channel(s) : 2 channels
Channel positions : Front: L R
Sampling rate : 48.0 kHz
Frame rate : 31.250 FPS (1536 SPF)
Bit depth : 16 bits
Compression mode : Lossy
Stream size : 180 MiB (5%)
Title : Профессиональный многоголосый закадровый
Language : Russian
Service kind : Complete Main
Default : Yes
Forced : No
Statistics Tags Issue : mkvmerge v17.0.0 ('Be Ur Friend') 64-bit 2018-01-05 20:59:28 / mkvmerge v17.0.0 ('Be Ur Friend') 64-bit 2018-01-05 20:59:28 / UTC 2017-12-01T12:12:11Z
FromStats_BitRate : 192000
FromStats_Duration : 02:11:07.904000000
FromStats_FrameCount : 245872
FromStats_StreamSize : 188829696

Audio #2
ID : 3
Format : AC-3
Format/Info : Audio Coding 3
Codec ID : A_AC3
Duration : 2 h 11 min
Bit rate mode : Constant
Bit rate : 320 kb/s
Channel(s) : 6 channels
Channel positions : Front: L C R, Side: L R, LFE
Sampling rate : 48.0 kHz
Frame rate : 31.250 FPS (1536 SPF)
Bit depth : 16 bits
Compression mode : Lossy
Delay relative to video : -5 ms
Stream size : 300 MiB (8%)
Language : English
Service kind : Complete Main
Default : No
Forced : No
Statistics Tags Issue : mkvmerge v17.0.0 ('Be Ur Friend') 64-bit 2018-01-05 20:59:28 / mkvmerge v17.0.0 ('Be Ur Friend') 64-bit 2018-01-05 20:59:28 / UTC 2017-12-01T12:12:11Z
FromStats_BitRate : 320000
FromStats_Duration : 02:11:07.872000000
FromStats_FrameCount : 245871
FromStats_StreamSize : 314714880

Menu
00:00:00.000 : :Chapter 1
00:12:45.181 : :Chapter 2
00:24:01.190 : :Chapter 3
00:32:10.220 : :Chapter 4
00:40:53.826 : :Chapter 5
00:52:04.413 : :Chapter 6
00:58:48.483 : :Chapter 7
01:14:08.569 : :Chapter 8
01:33:05.163 : :Chapter 9
01:47:01.332 : :Chapter 10
01:55:52.112 : :Chapter 11
02:06:42.345 : :Chapter 12


Релиз от: | Silverok


_________________
Проголосуй за трекер Открытый торрент трекер - RUS-MEDIA.ORG

Проголосуй Открытый торрент трекер - RUS-MEDIA.ORG


Вернуться к началу
 Профиль Отправить личное сообщение  
 
   Похожие торренты   Автор   Торрент   Размер 
В этой теме нет новых непрочитанных сообщений. Прикуси пулю / Bite the Bullet [Боевик, приключения, вестерн, 1975] BDRip 1080p, Mvo

salma3

43 | 26

12.63 ГБ

В этой теме нет новых непрочитанных сообщений. Выбери трудный путь / Take a Hard Ride [Боевик, вестерн, приключения, 1975] BDRip 1080p, Avo

salma3

21 | 10

7.16 ГБ

В этой теме нет новых непрочитанных сообщений. Зорро / Zorro [Приключения, Вестерн, Боевик, 1975] WEB-DLRip 720p, Dub [советский]

salma3

0 | 0

3.3 ГБ

В этой теме нет новых непрочитанных сообщений. Пуля для генерала / Quién sabe? / A Bullet for the General [вестерн, 1966] BDRip 720p, Dub

salma3

54 | 10

5.02 ГБ

В этой теме нет новых непрочитанных сообщений. Аэропорт 1975 / Airport 1975 [боевик, триллер, драма, 1974] BDRip 720p, Mvo+Sub

salma3

89 | 43

4.51 ГБ

В этой теме нет новых непрочитанных сообщений. Рустер Когберн / Rooster Cogburn [драма, приключения, вестерн, 1975] HDRip, Dub

salma3

14 | 2

1.45 ГБ

В этой теме нет новых непрочитанных сообщений. Побег / Breakout [боевик, драма, приключения, 1975] BDRip-AVC, Dub

salma3

0 | 0

2.74 ГБ


Начать новую тему Ответить на тему  [ 1 сообщение ] 




Для Мосгорсуда, Роскомнадзора и рекламодателей:: mosgorsud-torrent[собачка]yandex.ru
cron