Торрент файл
скачать торрент магнет ссылка Добавлен: 10 янв 2018, 23:32
Размер: 2.18 ГБ
Сидеров: 4
Личеров: 5
Статус: (salma3)
Автор

СообщениеДобавлено: 10 янв 2018, 23:32 

Не в сети
Супермодератор
Аватара пользователя
Дата регистрации:
15 фев 2012, 16:44
Возраст: 29
Спасибо: 7435 / 2147
Сообщения: 80356
Год выхода: 2005
Жанр: ужасы, детектив
Режиссер: Хидео Наката

В ролях: Наоми Уоттс, Саймон Бейкер, Дэвид Дорфман, Элизабет Перкинс, Гэри Коул, Сисси Спейсек, Райан Мерриман, Эмили ВанКэмп, Келли Овертон, Джеймс Лежер

О фильме:
Чтобы избавиться от кошмарных воспоминаний и начать новую жизнь, Рейчел с сыном переезжают в маленький городок в штате Орегон. Но, когда совершается убийство и на месте преступления обнаруживают загадочную, не подписанную видеокассету, Рейчел понимает, что мстительная Самара вернулась и решительнее, чем прежде намерена продолжить свой безжалостный террор. В отчаянной борьбе за жизнь, свою и сына, Рейчел вновь должна противостоять Самаре.



Страна: США
Продолжительность: 01:49:23
Перевод: Профессиональный (полное дублирование) iTunes Russia

Файл
Кодек: H264
Качество: WEBRip-AVC
Видео: 1024x576 (16:9), 23.976fps, High@L4.1, ~2467 Kbit/s, 0.174 bit/pixel
Звук: AC3, 48000 Hz, 6ch, 384 kb/s)
Субтитры: Английские

x264 info: frame I:1039 Avg QP:15.16 size: 73503
x264 info: frame P:34384 Avg QP:18.16 size: 24936
x264 info: frame B:121931 Avg QP:20.51 size: 8935
x264 info: consecutive B-frames: 1.9% 2.6% 6.0% 27.6% 16.5% 33.6% 5.8% 3.4% 1.9% 0.8%
General
Unique ID : 74926259564003517996877194702777090297 (0x385E45CF1C9B940B7D161943DF1200F9)
Complete name : F:FILMSЗвонок 2.(2005).WEBRIP-AVC.[-=DoMiNo=-].mkv
Format : Matroska
Format version : Version 4 / Version 2
File size : 2.18 GiB
Duration : 1 h 49 min
Overall bit rate : 2 854 kb/s
Movie name : Звонок 2
Deion : Чтобы избавиться от кошмарных воспоминаний и начать новую жизнь, Рейчел с сыном переезжают в маленький городок в штате Орегон. Но, когда совершается убийство и на месте преступления обнаруживают загадочную, не подписанную видеокассету, Рейчел понимает, что мстительная Самара вернулась и решительнее, чем прежде намерена продолжить свой безжалостный террор. В отчаянной борьбе за жизнь, свою и сына, Рейчел вновь должна противостоять Самаре.
Writing application : XviD4PSP 7.0.437 DAILY
Writing library : Lavf57.71.100
ErrorDetectionType : Per level 1
Attachments : poster.jpg
COMPOSER : Хеннинг Лонер, Мартин Тилльман
DATE : 2005
DIRECTOR : Хидэо Наката
ENCODING_INFO : MATROSKA,WEBM > MKV Пользовательский / H264 > X264 VBR-2P 2467kbps Пользовательский / AC3 > COPY Безопасное
GENRE : ужасы, детектив, триллер
HD_VIDEO : 1
Language : und
MEDIA_TYPE : 9
ORIGINAL_TITLE : The Ring Two
PRODUCER : Лори МакДональд, Уолтер Ф. Паркс, Крис Бендер, Нил Эдельштейн, Мишель Императо, Рой Ли, Майк Макари, Нил А. Мачлиз, Дж.С. Спинк, Мишель Вейслер
WRITER : Эрен Крюгер, Хироси Такахаси, Кодзи Судзуки

Video
ID : 1
Format : AVC
Format/Info : Advanced Video Codec
Format profile : High@L4.1
Format settings : CABAC / 10 Ref Frames
Format settings, CABAC : Yes
Format settings, ReFrames : 10 frames
Codec ID : V_MPEG4/ISO/AVC
Duration : 1 h 49 min
Bit rate : 2 467 kb/s
Width : 1 024 pixels
Height : 576 pixels
Display aspect ratio : 16:9
Frame rate mode : Constant
Frame rate : 23.976 (24000/1001) FPS
Color space : YUV
Chroma subsampling : 4:2:0
Bit depth : 8 bits
Scan type : Progressive
Bits/(Pixel*Frame) : 0.174
Stream size : 1.84 GiB (85%)
Title : RIP_BY_-=DoMiNo=-
Writing library : x264 core 155 r2893M b00bcaf
Encoding settings : cabac=1 / ref=10 / deblock=1:-3:-3 / analyse=0x3:0x133 / me=umh / subme=10 / psy=1 / psy_rd=1.00:0.03 / mixed_ref=1 / me_range=32 / chroma_me=1 / trellis=2 / 8x8dct=1 / cqm=0 / deadzone=21,11 / fast_pskip=1 / chroma_qp_offset=-3 / threads=6 / lookahead_threads=1 / sliced_threads=0 / nr=0 / decimate=1 / interlaced=0 / bluray_compat=0 / constrained_intra=0 / bframes=9 / b_pyramid=2 / b_adapt=2 / b_bias=0 / direct=3 / weightb=1 / open_gop=0 / weightp=2 / keyint=240 / keyint_min=24 / scenecut=40 / intra_refresh=0 / rc_lookahead=60 / rc=2pass / mbtree=1 / bitrate=2467 / ratetol=1.0 / qcomp=0.60 / qpmin=0 / qpmax=69 / qpstep=4 / cplxblur=20.0 / qblur=0.5 / ip_ratio=1.40 / aq=1:1.00
Default : Yes
Forced : No
Color range : Limited
Color primaries : BT.709
Transfer characteristics : BT.709
Matrix coefficients : BT.709

Audio
ID : 2
Format : AC-3
Format/Info : Audio Coding 3
Codec ID : A_AC3
Duration : 1 h 49 min
Bit rate mode : Constant
Bit rate : 384 kb/s
Channel(s) : 6 channels
Channel positions : Front: L C R, Side: L R, LFE
Sampling rate : 48.0 kHz
Frame rate : 31.250 FPS (1536 SPF)
Bit depth : 16 bits
Compression mode : Lossy
Stream size : 300 MiB (13%)
Title : DUB
Language : Russian
Service kind : Complete Main
Default : Yes
Forced : No

Text
ID : 3
Format : UTF-8
Codec ID : S_TEXT/UTF8
Codec ID/Info : UTF-8 Plain Text
Language : English
Default : Yes
Forced : No


_________________
Проголосуй за трекер Открытый торрент трекер - RUS-MEDIA.ORG

Проголосуй Открытый торрент трекер - RUS-MEDIA.ORG


Вернуться к началу
 Профиль Отправить личное сообщение  
 
   Похожие торренты   Автор   Торрент   Размер 
В этой теме нет новых непрочитанных сообщений. Звонок 2 / The Ring Two [ужасы, детектив, 2005] WEBRip 1080p, Dub

salma3

0 | 12

10.6 ГБ

В этой теме нет новых непрочитанных сообщений. Звонок / The Ring [ужасы, триллер, детектив, 2002] BDRip-AVC, Dub

salma3

69 | 13

746.09 МБ

В этой теме нет новых непрочитанных сообщений. Один пропущенный звонок / One Missed Call [ужасы, триллер, детектив, 2008] BDRip 720p, Dub

salma3

22 | 2

2.79 ГБ

В этой теме нет новых непрочитанных сообщений. Рикер / Reeker [ужасы, детектив, 2005] WEBRip 1080p, Dub

salma3

79 | 39

9.38 ГБ

В этой теме нет новых непрочитанных сообщений. Звонок 0: Рождение / Ringu 0: Bâsudei [Ужасы, 2000] BDRip-AVC, Dvo

salma3

8 | 1

3.65 ГБ

В этой теме нет новых непрочитанных сообщений. Роковой звонок / Call Me [Триллер, драма, детектив, 1988] WEB-DL 1080p, Mvo

salma3

0 | 0

9.08 ГБ

В этой теме нет новых непрочитанных сообщений. Звонок смерти / Госа / Рассказ / Death Bell / Gosa [ужасы, триллер, 2008] BDRip 1080p, Dvo

salma3

13 | 2

6.67 ГБ


Начать новую тему Ответить на тему  [ 1 сообщение ] 




Для Мосгорсуда, Роскомнадзора и рекламодателей:: mosgorsud-torrent[собачка]yandex.ru
cron