Торрент файл
скачать торрент магнет ссылка Добавлен: 13 фев 2018, 12:33
Размер: 1.58 ГБ
Сидеров: 111
Личеров: 46
Статус: (salma3)
Автор

СообщениеДобавлено: 13 фев 2018, 12:33 

Не в сети
Супермодератор
Аватара пользователя
Дата регистрации:
15 фев 2012, 16:44
Возраст: 29
Спасибо: 7422 / 2147
Сообщения: 79959
Год выхода: 2018
Жанр: Ужасы
Режиссер: Гектор Эрнандес

В ролях: Софи Скелтон, Джонатон Шек, Джефф Гам, Маркус Ванко, Марк Смит, Лиллиэн Бланкеншип, Шари Уотсон, Рэйчел О'Мира, Люк Казинс, Лорина Камбурова и др.

О фильме: Чудовищный вирус, превращающий людей в зомби, поставил под угрозу само существование человеческой расы. Группе военных удалось укрыться в катакомбах, где молодая и обаятельная Зои проводит опыты по поиску вакцины. Для нахождения нужной формулы не хватает лишь одного «элемента». На его поиски отправляется группа спецназовцев. Дерзкая вылазка в «мёртвую зону» оборачивается провалом и запускает обратный отсчет времени.



Страна: США
Продолжительность: 01:29:58
Перевод: Дублированный | iTunes

Файл
Качество: HDRip-AVC
Видео: 1024x428 (2.40:1), 24,000 fps, x264 ~1 676 kbps avg, 0.159 bit/pixel
Аудио1: 48 kHz, AC3 Dolby Digital, 3/2 (L,C,R,l,r) + LFE ch, ~384.00 kbps avg | RUS (iTunes)
Аудио2: 48 kHz, AC3 Dolby Digital, 3/2 (L,C,R,l,r) + LFE ch, ~448.00 kbps avg | ENG

Общее
Уникальный идентификатор : 181635040737679940178813994479924758361 (0x88A5A2EA7FB83A8799312D7877134759)
Полное имя : E:OlLanDGroupDay.Of.The.Dead.Bloodline.2017.HDRip(AVC).OlLanDGroup.mkv
Формат : Matroska
Версия формата : Version 2
Размер файла : 1,58 Гбайт
Продолжительность : 1 ч. 29 м.
Общий поток : 2508 Кбит/сек
Название фильма : Day.Of.The.Dead.Bloodline.2017 #TorpedoUK#
Дата кодирования : UTC 2018-02-13 00:45:07
Программа кодирования : mkvmerge v7.8.0 ('River Man') 32bit built on Apr 3 2015 12:11:22
Библиотека кодирования : libebml v1.3.1 + libmatroska v1.4.2

Видео
Идентификатор : 1
Формат : AVC
Формат/Информация : Advanced Video Codec
Профиль формата : High@L4.1
Параметр CABAC формата : Да
Параметр ReFrames формата : 10 кадров
Идентификатор кодека : V_MPEG4/ISO/AVC
Продолжительность : 1 ч. 29 м.
Битрейт : 1676 Кбит/сек
Ширина : 1024 пикселя
Высота : 428 пикселей
Соотношение сторон : 2,40:1
Режим частоты кадров : Постоянный
Частота кадров : 24,000 кадра/сек
Цветовое пространство : YUV
Субдискретизация насыщенности : 4:2:0
Битовая глубина : 8 бит
Тип развёртки : Прогрессивная
Бит/(Пиксели*Кадры) : 0.159
Размер потока : 1,02 Гбайт (65%)
Библиотека кодирования : x264 core 146 r2538 121396c
Настройки программы : cabac=1 / ref=10 / deblock=1:-2:-3 / analyse=0x3:0x133 / me=umh / subme=11 / psy=1 / psy_rd=0.97:0.07 / mixed_ref=1 / me_range=48 / chroma_me=1 / trellis=2 / 8x8dct=1 / cqm=0 / deadzone=21,11 / fast_pskip=1 / chroma_qp_offset=-3 / threads=6 / lookahead_threads=1 / sliced_threads=0 / nr=0 / decimate=1 / interlaced=0 / bluray_compat=0 / constrained_intra=0 / bframes=10 / b_pyramid=2 / b_adapt=2 / b_bias=0 / direct=3 / weightb=1 / open_gop=0 / weightp=2 / keyint=240 / keyint_min=24 / scenecut=40 / intra_refresh=0 / rc_lookahead=40 / rc=2pass / mbtree=0 / bitrate=1676 / ratetol=1.0 / qcomp=0.60 / qpmin=0 / qpmax=69 / qpstep=4 / cplxblur=20.0 / qblur=0.5 / vbv_maxrate=50000 / vbv_bufsize=62500 / nal_hrd=none / filler=0 / ip_ratio=1.40 / pb_ratio=1.30 / aq=1:1.00
Язык : English
Default : Да
Forced : Нет

Аудио #1
Идентификатор : 2
Формат : AC-3
Формат/Информация : Audio Coding 3
Расширение режима : CM (complete main)
Параметр Endianness формата : Big
Идентификатор кодека : A_AC3
Продолжительность : 1 ч. 29 м.
Вид битрейта : Постоянный
Битрейт : 384 Кбит/сек
Каналы : 6 каналов
Расположение каналов : Front: L C R, Side: L R, LFE
Частота : 48,0 КГц
Частота кадров : 31,250 кадров/сек (1536 spf)
Битовая глубина : 16 бит
Метод сжатия : С потерями
Размер потока : 247 Мбайт (15%)
Заголовок : iTunes
Язык : Russian
Default : Да
Forced : Нет

Аудио #2
Идентификатор : 3
Формат : AC-3
Формат/Информация : Audio Coding 3
Расширение режима : CM (complete main)
Параметр Endianness формата : Big
Идентификатор кодека : A_AC3
Продолжительность : 1 ч. 29 м.
Вид битрейта : Постоянный
Битрейт : 448 Кбит/сек
Каналы : 6 каналов
Расположение каналов : Front: L C R, Side: L R, LFE
Частота : 48,0 КГц
Частота кадров : 31,250 кадров/сек (1536 spf)
Битовая глубина : 16 бит
Метод сжатия : С потерями
Размер потока : 288 Мбайт (18%)
Заголовок : Original
Язык : English
Default : Нет
Forced : Нет

Меню
00:00:00.000 : en:Глава 1
00:11:56.083 : en:Глава 2
00:18:41.999 : en:Глава 3
00:25:40.749 : en:Глава 4
00:32:36.540 : en:Глава 5
00:38:33.206 : en:Глава 6
00:44:01.789 : en:Глава 7
00:48:57.997 : en:Глава 8
00:55:13.413 : en:Глава 9
01:02:12.413 : en:Глава 10
01:08:40.996 : en:Глава 11
01:13:48.704 : en:Глава 12
01:19:30.370 : en:Глава 13



Релиз от: Rip by:


_________________
Проголосуй за трекер Открытый торрент трекер - RUS-MEDIA.ORG

Проголосуй Открытый торрент трекер - RUS-MEDIA.ORG


Вернуться к началу
 Профиль Отправить личное сообщение  
 
   Похожие торренты   Автор   Торрент   Размер 
В этой теме нет новых непрочитанных сообщений. День мертвецов: Злая кровь / Day of the Dead: Bloodline [Ужасы, 2018] HDRip, Dub [iTunes]

salma3

0 | 0

1.37 ГБ

В этой теме нет новых непрочитанных сообщений. День мертвецов: Злая кровь / Day of the Dead: Bloodline [Ужасы, 2018] HDRip-AVC, Dub [iTunes]

salma3

427 | 231

743.81 МБ

В этой теме нет новых непрочитанных сообщений. День мертвецов: Злая кровь / Day of the Dead: Bloodline [Ужасы, 2018] HDRip, Dub [iTunes]

salma3

0 | 0

340.77 МБ

В этой теме нет новых непрочитанных сообщений. День мертвецов: Злая кровь / Day of the Dead: Bloodline [Ужасы, 2018] WEB-DL 1080p, Dub [iTunes]

salma3

0 | 0

3.07 ГБ

В этой теме нет новых непрочитанных сообщений. День мертвецов: Злая кровь / Day of the Dead: Bloodline [ужасы, 2018] BDRip 1080p, Dub [iTunes]

salma3

16 | 24

6.8 ГБ

В этой теме нет новых непрочитанных сообщений. День мертвецов: Злая кровь / Day of the Dead: Bloodline [ужасы, 2018] BDRip 720p, Dub [iTunes]

salma3

14 | 9

4.61 ГБ

В этой теме нет новых непрочитанных сообщений. День мертвецов: Злая кровь / Day of the Dead: Bloodline [Ужасы, 2018] HDRip, Mvo [GreenРай Studio]

salma3

78 | 12

1.37 ГБ


Начать новую тему Ответить на тему  [ 1 сообщение ] 




Для Мосгорсуда, Роскомнадзора и рекламодателей:: mosgorsud-torrent[собачка]yandex.ru
cron