Торрент файл
скачать торрент магнет ссылка Добавлен: 15 фев 2018, 17:45
Размер: 746.46 МБ
Сидеров: 0
Личеров: 0
Статус: (salma3)
Автор

СообщениеДобавлено: 15 фев 2018, 17:45 

Не в сети
Супермодератор
Аватара пользователя
Дата регистрации:
15 фев 2012, 16:44
Возраст: 29
Спасибо: 7400 / 2147
Сообщения: 78216
Год выхода: 2010
Жанр: Ужасы, триллер, драма
Режиссер: Даниэль Штамм

В ролях: Патрик Фабиан, Эшли Белл, Ирис Бар, Луис Хертэм, Калеб Джонс, Тони Бентли, Джон Райт мл., Шанна Форресталль, Джастин Шафер, Кэрол Саттон

О фильме :
Преподобный Маркус Коттон много лет занимается изгнанием дьявола из бесноватых. Секрет его успеха не столько в проникновенной молитве, сколько в многочисленных трюках и спецэффектах, которые оказывают чудесный психологический эффект на впечатлительную паству. Собираясь на очередной экзорцизм, он приглашает с собой съемочную группу, которая снимает о нем документальный фильм. Его вере придется пройти суровое испытание, когда он столкнется лицом к лицу с самим дьяволом.



Выпущено: США, Франция
Продолжительность: 01:27:37
Перевод: Профессиональный (полное дублирование)

Файл
Формат: MKV
Качество: HDRip-AVC
Видео: MPEG-4 AVC, 752x424, ~ 1114 Кбит/с
Аудио: AAC-LC, 2 ch, ~ 76 Кбит/с

Общее
Уникальный идентификатор : 236723578304977650524743397185601025886 (0xB2174D844D18069493FA8E088AB6375E)
Полное имя : D:MOVIESThe.Last.Exorcism.2010.ExKinoRay.mkv
Формат : Matroska
Версия формата : Version 4 / Version 2
Размер файла : 746 Мбайт
Продолжительность : 1 ч. 27 м.
Общий поток : 1191 Кбит/сек
Дата кодирования : UTC 2018-02-15 12:16:11
Программа кодирования : mkvmerge v15.0.0 ('Duel with the Devil') 64-bit
Библиотека кодирования : libebml v1.3.5 + libmatroska v1.4.5

Видео
Идентификатор : 1
Формат : AVC
Формат/Информация : Advanced Video Codec
Профиль формата : High@L4.1
Параметр CABAC формата : Да
Параметр RefFrames формата : 10 кадров
Идентификатор кодека : V_MPEG4/ISO/AVC
Продолжительность : 1 ч. 27 м.
Битрейт : 1114 Кбит/сек
Ширина : 752 пикселя
Высота : 424 пикселя
Соотношение сторон : 16:9
Режим частоты кадров : Постоянный
Частота кадров : 23,976 (24000/1001) кадра/сек
Цветовое пространство : YUV
Субдискретизация насыщенности : 4:2:0
Битовая глубина : 8 бит
Тип развёртки : Прогрессивная
Бит/(Пиксели*Кадры) : 0.146
Размер потока : 698 Мбайт (93%)
Библиотека кодирования : x264 core 152 r2851kMod ba24899
Настройки программы : cabac=1 / ref=10 / deblock=1:-3:-3 / analyse=0x3:0x133 / me=umh / subme=11 / psy=1 / fade_compensate=0.00 / psy_rd=1.00:0.10 / mixed_ref=1 / me_range=32 / chroma_me=1 / trellis=2 / 8x8dct=1 / cqm=0 / deadzone=21,11 / fast_pskip=0 / chroma_qp_offset=-3 / threads=6 / lookahead_threads=1 / sliced_threads=0 / nr=0 / decimate=0 / interlaced=0 / bluray_compat=0 / constrained_intra=0 / bframes=10 / b_pyramid=2 / b_adapt=2 / b_bias=0 / direct=3 / weightb=1 / open_gop=0 / weightp=2 / keyint=240 / keyint_min=23 / scenecut=40 / intra_refresh=0 / rc_lookahead=40 / rc=2pass / mbtree=1 / bitrate=1114 / ratetol=1.0 / qcomp=0.60 / qpmin=0 / qpmax=69 / qpstep=4 / cplxblur=20.0 / qblur=0.5 / vbv_maxrate=50000 / vbv_bufsize=62500 / nal_hrd=none / filler=0 / ip_ratio=1.40 / aq=3:1.00
Default : Да
Forced : Нет

Аудио
Идентификатор : 2
Формат : AAC
Формат/Информация : Advanced Audio Codec
Профиль формата : LC
Идентификатор кодека : A_AAC
Продолжительность : 1 ч. 27 м.
Битрейт : 76,0 Кбит/сек
Каналы : 2 канала
Расположение каналов : Front: L R
Частота : 48,0 КГц
Частота кадров : 46,875 кадров/сек (1024 SPF)
Метод сжатия : С потерями
Задержка видео : 9 мс.
Размер потока : 47,6 Мбайт (6%)
Default : Да
Forced : Нет

Релиз от:


_________________
Проголосуй за трекер Открытый торрент трекер - RUS-MEDIA.ORG

Проголосуй Открытый торрент трекер - RUS-MEDIA.ORG


Вернуться к началу
 Профиль Отправить личное сообщение  
 
   Похожие торренты   Автор   Торрент   Размер 
В этой теме нет новых непрочитанных сообщений. Последнее изгнание дьявола: Второе пришествие / The Last Exorcism Part II [ужасы, триллер, драма, 2013] BDRemux 1080р, Avo [UNRATED]

salma3

35 | 45

21.28 ГБ

В этой теме нет новых непрочитанных сообщений. Шесть демонов Эмили Роуз / The Exorcism of Emily Rose [ужасы, триллер, драма, 2005] BDRip, Dub

salma3

20 | 7

2.18 ГБ

В этой теме нет новых непрочитанных сообщений. Служители дьявола / Spellbinder [ужасы, триллер, драма, 1988] BDRip, Dvo [НТВ+]

salma3

11 | 2

1.45 ГБ

В этой теме нет новых непрочитанных сообщений. Шёпот дьявола / Devil's Whisper [Ужасы, триллер, драма, 2017] WEBRip, Dvo

salma3

39 | 4

1.17 ГБ

В этой теме нет новых непрочитанных сообщений. Служители дьявола / Spellbinder [ужасы, триллер, драма, мелодрама, 1988] HDTVRip, Dvo

salma3

67 | 9

1.45 ГБ

В этой теме нет новых непрочитанных сообщений. Служители дьявола / Spellbinder [ужасы, триллер, драма, мелодрама, 1988] BDRemux 1080p, Dvo

salma3

19 | 69

18.43 ГБ

В этой теме нет новых непрочитанных сообщений. Шёпот дьявола / Devil's Whisper [Ужасы, триллер, драма, 2017] WEBRip 720p, Dvo

salma3

42 | 4

2.41 ГБ


Начать новую тему Ответить на тему  [ 1 сообщение ] 




Для Мосгорсуда, Роскомнадзора и рекламодателей:: mosgorsud-torrent[собачка]yandex.ru
cron