Торрент файл
скачать торрент магнет ссылка Добавлен: 09 мар 2018, 17:46
Размер: 698.6 МБ
Сидеров: 0
Личеров: 0
Статус: (salma3)
Автор

СообщениеДобавлено: 09 мар 2018, 17:46 

В сети
Супермодератор
Аватара пользователя
Дата регистрации:
15 фев 2012, 16:44
Возраст: 29
Спасибо: 7401 / 2147
Сообщения: 78486
Год выхода: 1996
Жанр: Боевик
Режиссер: Пол Зиллер

В ролях: Боло Йенг, Уильям Забка, Майкл Бернардо, Чейз Рэндольф, Бретт Бакстер Кларк, Кристи Эйзенберг, Джо Сон, Хорхе Хиль

О фильме: Сын Лу Роулинса, полицейского из Сан-Франциско, погиб в Майами от рук организатора поединков насмерть — кровавого развлечения местных мафиози. Отец поклялся отомстить бандитам и раздавить всю группировку, прекратив, таким образом, чудовищные схватки современных гладиаторов. Он собирает свою команду бойцов, во главе которой становится учитель восточных единоборств, уроженец Гонконга Шинго. Каждому из них ненавистно жестокое зрелище, и они не оставляют шансов кровожадным преступникам…



Страна: США
Продолжительность: 01:30:36
Перевод: Профессиональный (многоголосый, закадровый) (R5)

Файл
Кодек: XviD
Качество: HDRip
Видео: 592x336 (1.76:1), 23.976 fps, XviD build 73 ~940 kbps avg, 0.20 bit/pixel
Звук: 48 kHz, MPEG Layer 3, 2 ch, ~128.00 kbps avg



General
Complete name : Shootfighter.II.1996.HDRip.ot.Portablius.avi
Format : AVI
Format/Info : Audio Video Interleave
File size : 699 MiB
Duration : 1 h 30 min
Overall bit rate : 1 078 kb/s
Writing application : VirtualDubMod 1.5.10.3 | http://www.virtualdub-fr.org || (build 2550/release)
Writing library : VirtualDubMod build 2550/release

Video
ID : 0
Format : MPEG-4 Visual
Format profile : Advanced Simple@L5
Format settings, BVOP : 1
Format settings, QPel : No
Format settings, GMC : No warppoints
Format settings, Matrix : Custom
Codec ID : XVID
Codec ID/Hint : XviD
Duration : 1 h 30 min
Bit rate : 941 kb/s
Width : 592 pixels
Height : 336 pixels
Display aspect ratio : 16:9
Frame rate : 23.976 (24000/1001) FPS
Original frame rate : 23.976 (23976/1000) FPS
Color space : YUV
Chroma subsampling : 4:2:0
Bit depth : 8 bits
Scan type : Progressive
Compression mode : Lossy
Bits/(Pixel*Frame) : 0.197
Stream size : 610 MiB (87%)
Writing library : XviD 73

Audio
ID : 1
Format : MPEG Audio
Format version : Version 1
Format profile : Layer 3
Codec ID : 55
Codec ID/Hint : MP3
Duration : 1 h 30 min
Bit rate mode : Constant
Bit rate : 128 kb/s
Channel(s) : 2 channels
Sampling rate : 48.0 kHz
Compression mode : Lossy
Stream size : 83.0 MiB (12%)
Alignment : Aligned on interleaves
Interleave, duration : 42 ms (1.00 video frame)
Interleave, preload duratio : 504 ms
Writing library : LAME3.99r
Encoding settings : -m s -V 4 -q 2 -lowpass 17 -b 128



_________________
Проголосуй за трекер Открытый торрент трекер - RUS-MEDIA.ORG

Проголосуй Открытый торрент трекер - RUS-MEDIA.ORG


Вернуться к началу
 Профиль Отправить личное сообщение  
 
   Похожие торренты   Автор   Торрент   Размер 
В этой теме нет новых непрочитанных сообщений. Сильнейший удар 2 / Shootfighter II [боевик, 1996] HDRip-AVC, Mvo

salma3

34 | 21

2.17 ГБ

В этой теме нет новых непрочитанных сообщений. Сильнейший удар 2 / Shootfighter II [боевик, 1996] HDRip, Avo [Гаврилов]

salma3

104 | 50

1.46 ГБ

В этой теме нет новых непрочитанных сообщений. Сильнейший удар: Бой до смерти / Shootfighter: Fight to the Death [боевик, 1992] DVDRip, Dvo [Рен ТВ]

salma3

64 | 4

1.46 ГБ

В этой теме нет новых непрочитанных сообщений. Сильнейший удар: Бой до смерти / Shootfighter: Fight to the Death [Боевик, 1992] BDRip 720p, Dvo [Рен ТВ]

salma3

0 | 0

3.6 ГБ

В этой теме нет новых непрочитанных сообщений. Сильнейший удар: Бой до смерти / Shootfighter: Fight to the Death [Боевик, боевые искусства, 1992] BDRip 1080p, Dvo

salma3

82 | 25

7.06 ГБ

В этой теме нет новых непрочитанных сообщений. Первый удар / First Strike [Боевик, триллер, драма, 1996] HDRip, Mvo [HTB]

salma3

14 | 3

1.37 ГБ

В этой теме нет новых непрочитанных сообщений. Дрожь земли 2: Повторный удар / Tremors II: Aftershocks [ужасы, фантастика, боевик, 1996] HDRip-AVC, Mvo

salma3

122 | 23

745.02 МБ


Начать новую тему Ответить на тему  [ 1 сообщение ] 




Для Мосгорсуда, Роскомнадзора и рекламодателей:: mosgorsud-torrent[собачка]yandex.ru
cron