Торрент файл
скачать торрент магнет ссылка Добавлен: 30 мар 2018, 20:52
Размер: 1.34 ГБ
Сидеров: 43
Личеров: 14
Статус: (salma3)
Автор

СообщениеДобавлено: 30 мар 2018, 20:52 

Не в сети
Супермодератор
Аватара пользователя
Дата регистрации:
15 фев 2012, 16:44
Возраст: 29
Спасибо: 7401 / 2147
Сообщения: 78470
Год выхода: 2017
Жанр: Триллер
Режиссер: Адам МакДональд

В ролях: Николь Муньос, Лори Холден, Хлоя Роуз, Эрик Осборн, Джеймс Макгоун, Мисси Перегрим, Виктория Санчес, Нил Уайтли и другие

О фильме:
После смерти главы семейства мать с дочерью-подростком Лиа не могут найти общий язык. Чтобы сбежать от реальности, девушка с друзьями увлеклась оккультизмом. Ее мать решает, что их семье нужно сменить обстановку, и они переезжают в одинокостоящий дом в лесу, далеко от друзей и школы Лиа. Отношения не налаживаются, и после очередной ссоры рассерженная девушка идет в лес и проводит обряд вызова духа, чтобы тот убил мать. На следующий день она жалеет о содеянном, но что-то из леса уже пробралось в их дом.



Страна: Канада, Cave Painting Pictures
Продолжительность: 01:28:27
Перевод: Любительский (двухголосый закадровый) | HiWay Grope

Файл
Кодек: XviD
Качество: WEBRip
Видео: 720x304, 23.976 fps, ~1780 kbps, 0.34 bit/pixel
Аудио rus: AC3, 48 kHz, 6 ch, 384 Kbps

Семпл

General
Complete name : E:Pyewacket.2017.WEBRip.HiWayGropePyewacket.2017.WEBRip.HiWayGrope.avi
Format : AVI
Format/Info : Audio Video Interleave
File size : 1.34 GiB
Duration : 1h 28mn
Overall bit rate : 2 174 Kbps
Writing application : VirtualDubMod 1.5.10.3 (build 2550/release)
Writing library : VirtualDubMod build 2550/release

Video
ID : 0
Format : MPEG-4 Visual
Format profile : Advanced Simple@L5
Format settings, BVOP : 1
Format settings, QPel : No
Format settings, GMC : No warppoints
Format settings, Matrix : Default (MPEG)
Codec ID : XVID
Codec ID/Hint : XviD
Duration : 1h 28mn
Bit rate : 1 781 Kbps
Width : 720 pixels
Height : 304 pixels
Display aspect ratio : 2.35:1
Frame rate : 23.976 (23976/1000) fps
Color space : YUV
Chroma subsampling : 4:2:0
Bit depth : 8 bits
Scan type : Progressive
Compression mode : Lossy
Bits/(Pixel*Frame) : 0.339
Stream size : 1.10 GiB (82%)
Writing library : XviD 73

Audio
ID : 1
Format : AC-3
Format/Info : Audio Coding 3
Mode extension : CM (complete main)
Format settings, Endianness : Big
Codec ID : 2000
Duration : 1h 28mn
Bit rate mode : Constant
Bit rate : 384 Kbps
Channel(s) : 6 channels
Channel positions : Front: L C R, Side: L R, LFE
Sampling rate : 48.0 KHz
Frame rate : 31.250 fps (1536 spf)
Compression mode : Lossy
Stream size : 243 MiB (18%)
Alignment : Split accross interleaves
Interleave, duration : 42 ms (1.00 video frame)
Interleave, preload duration : 500 ms



Релиз от: HiWay Grope


_________________
Проголосуй за трекер Открытый торрент трекер - RUS-MEDIA.ORG

Проголосуй Открытый торрент трекер - RUS-MEDIA.ORG


Вернуться к началу
 Профиль Отправить личное сообщение  
 
   Похожие торренты   Автор   Торрент   Размер 
В этой теме нет новых непрочитанных сообщений. Близкий дух / Pyewacket [Триллер, 2017] WEBRip 720p, Dvo

salma3

26 | 12

2.69 ГБ

В этой теме нет новых непрочитанных сообщений. Близкий дух / Pyewacket [Ужасы, триллер, 2017] WEB-DLRip, Dvo

salma3

143 | 49

1.36 ГБ

В этой теме нет новых непрочитанных сообщений. Близкий дух / Pyewacket [Ужасы, триллер, 2017] WEB-DL 1080p, Dvo

salma3

49 | 12

3.26 ГБ

В этой теме нет новых непрочитанных сообщений. Близкий дух / Pyewacket [Ужасы, триллер, 2017] BDRip 1080p, Mvo

salma3

93 | 48

6.78 ГБ

В этой теме нет новых непрочитанных сообщений. Близкий контакт / Closer [короткометражка, фантастика, 2013] WEB-DLRip-AVC, Dvo

salma3

150 | 31

403.83 МБ

В этой теме нет новых непрочитанных сообщений. Зверь / Beast [Триллер, 2017] WEBRip, Dvo

salma3

0 | 1

1.27 ГБ

В этой теме нет новых непрочитанных сообщений. Оно / It [ужасы, триллер, драма , 2017] WEBRip, Mvo

salma3

702 | 355

1.31 ГБ


Начать новую тему Ответить на тему  [ 1 сообщение ] 




Для Мосгорсуда, Роскомнадзора и рекламодателей:: mosgorsud-torrent[собачка]yandex.ru
cron