Торрент файл
скачать торрент магнет ссылка Добавлен: 08 май 2018, 13:09
Размер: 2.91 ГБ
Сидеров: 0
Личеров: 0
Статус: (salma3)
Автор

СообщениеДобавлено: 08 май 2018, 13:09 

Не в сети
Супермодератор
Аватара пользователя
Дата регистрации:
15 фев 2012, 16:44
Возраст: 29
Спасибо: 7421 / 2147
Сообщения: 79901
Год выхода: 1990
Жанр: Триллер, драма, криминал
Режиссер: Майк Фиггис / Mike Figgis

В ролях: Ричард Гир, Энди Гарсиа, Лори Меткалф, Нэнси Трэвис, Ричард Брэдфорд, Уильям Болдуин, Майкл Бич, Кэтрин Боровиц, Фэй Грант, Джон Капелос

О фильме:
Когда любой из нас попадает в беду, страж правопорядка, являющийся на помощь, подобен ангелу. В минуты несчастья он - единственный спаситель и защитник
Вы доверяете ему себя всецело и безоглядно. И ни у кого, ни при каких обстоятельствах не возникнет подозрения, что за благородной внешностью, под аккуратно отутюженным полицейским кителем может скрываться дьявол...

Страна: США
Продолжительность: 01:54:45
Перевод: Профессиональный (многоголосый закадровый) со вставками Гаврилова, авторский (одноголосый закадровый) Андрей Гаврилов

Файл
Контейнер: MKV
Качество: BDRip-AVC
Видео: AVC, 1024x576 (16:9), 23.976 fps, 2 603 Kbps (0.184 bit/pixel)
Аудио #1: AC-3, 48.0 KHz, 2 ch, 192 Kbps, CBR (Russian) - многоголосый
Аудио #2: AC-3, 48.0 KHz, 6 ch, 384 Kbps, CBR (Russian) - авторский А.Гаврилов
Аудио #3: AC-3, 48.0 KHz, 6 ch, 448 Kbps, CBR (English) - оригинальная звуковая дорожка
Субтитры: Русские, английские

Релиз: &

x264 [info]: profile High, level 4.1
x264 [info]: frame I:1038 Avg QP:16.81 size: 75324 PSNR Mean Y:46.51 U:49.06 V:49.92 Avg:47.28 Global:46.65
x264 [info]: frame P:32494 Avg QP:19.37 size: 27424 PSNR Mean Y:44.09 U:47.04 V:48.08 Avg:44.95 Global:44.30
x264 [info]: frame B:131553 Avg QP:21.42 size: 9665 PSNR Mean Y:43.18 U:46.58 V:47.82 Avg:44.13 Global:43.49
Формат : Matroska
Версия формата : Version 2
Размер файла : 2,91 Гбайт
Продолжительность : 1 ч. 54 м.
Общий поток : 3630 Кбит/сек
Название фильма : Internal.Affairs.1990
Дата кодирования : UTC 2017-08-04 17:22:04
Программа кодирования : mkvmerge v5.3.0 ('I could have danced') built on Feb 9 2012 10:38:07
Библиотека кодирования : libebml v1.2.3 + libmatroska v1.3.0
Attachments : poster.jpg
Видео
Идентификатор : 1
Формат : AVC
Формат/Информация : Advanced Video Codec
Профиль формата : High@L4.1
Параметр CABAC формата : Да
Параметр ReFrames формата : 11 кадров
Идентификатор кодека : V_MPEG4/ISO/AVC
Продолжительность : 1 ч. 54 м.
Битрейт : 2603 Кбит/сек
Ширина : 1024 пикселя
Высота : 576 пикселей
Соотношение сторон : 16:9
Режим частоты кадров : Постоянный
Частота кадров : 23,976 (24000/1001) кадра/сек
Цветовое пространство : YUV
Субдискретизация насыщенности : 4:2:0
Битовая глубина : 8 бит
Тип развёртки : Прогрессивная
Бит/(Пиксели*Кадры) : 0.184
Размер потока : 2,03 Гбайт (70%)
Библиотека кодирования : x264 core 146 r2538 121396c
Настройки программы : cabac=1 / ref=11 / deblock=1:-3:-3 / analyse=0x3:0x133 / me=umh / subme=10 / psy=1 / psy_rd=1.00:0.10 / mixed_ref=1 / me_range=32 / chroma_me=1 / trellis=2 / 8x8dct=1 / cqm=0 / deadzone=21,11 / fast_pskip=0 / chroma_qp_offset=-3 / threads=12 / lookahead_threads=3 / sliced_threads=0 / nr=0 / decimate=1 / interlaced=0 / bluray_compat=0 / constrained_intra=0 / bframes=10 / b_pyramid=2 / b_adapt=2 / b_bias=0 / direct=3 / weightb=1 / open_gop=0 / weightp=2 / keyint=240 / keyint_min=23 / scenecut=40 / intra_refresh=0 / rc=2pass / mbtree=0 / bitrate=2603 / ratetol=1.0 / qcomp=0.60 / qpmin=0 / qpmax=69 / qpstep=4 / cplxblur=20.0 / qblur=0.5 / ip_ratio=1.40 / pb_ratio=1.30 / aq=3:0.90
Язык : English
Default : Да
Forced : Нет
Аудио #1
Идентификатор : 2
Формат : AC-3
Формат/Информация : Audio Coding 3
Расширение режима : CM (complete main)
Параметр Endianness формата : Big
Идентификатор кодека : A_AC3
Продолжительность : 1 ч. 54 м.
Вид битрейта : Постоянный
Битрейт : 192 Кбит/сек
Каналы : 2 канала
Расположение каналов : Front: L R
Частота : 48,0 КГц
Частота кадров : 31,250 кадров/сек (1536 spf)
Битовая глубина : 16 бит
Метод сжатия : С потерями
Размер потока : 158 Мбайт (5%)
Заголовок : MVO
Язык : Russian
Default : Да
Forced : Нет
Аудио #2
Идентификатор : 3
Формат : AC-3
Формат/Информация : Audio Coding 3
Расширение режима : CM (complete main)
Параметр Endianness формата : Big
Идентификатор кодека : A_AC3
Продолжительность : 1 ч. 54 м.
Вид битрейта : Постоянный
Битрейт : 384 Кбит/сек
Каналы : 6 каналов
Расположение каналов : Front: L C R, Side: L R, LFE
Частота : 48,0 КГц
Частота кадров : 31,250 кадров/сек (1536 spf)
Битовая глубина : 16 бит
Метод сжатия : С потерями
Размер потока : 315 Мбайт (11%)
Заголовок : AVO Gavrilov
Язык : Russian
Default : Нет
Forced : Нет
Аудио #3
Идентификатор : 4
Формат : AC-3
Формат/Информация : Audio Coding 3
Расширение режима : CM (complete main)
Параметр Endianness формата : Big
Идентификатор кодека : A_AC3
Продолжительность : 1 ч. 54 м.
Вид битрейта : Постоянный
Битрейт : 448 Кбит/сек
Каналы : 6 каналов
Расположение каналов : Front: L C R, Side: L R, LFE
Частота : 48,0 КГц
Частота кадров : 31,250 кадров/сек (1536 spf)
Битовая глубина : 16 бит
Метод сжатия : С потерями
Размер потока : 368 Мбайт (12%)
Язык : English
Default : Нет
Forced : Нет
Текст #1
Идентификатор : 5
Формат : UTF-8
Идентификатор кодека : S_TEXT/UTF8
Идентификатор кодека/Информация : UTF-8 Plain Text
Язык : Russian
Default : Нет
Forced : Нет
Текст #2
Идентификатор : 6
Формат : UTF-8
Идентификатор кодека : S_TEXT/UTF8
Идентификатор кодека/Информация : UTF-8 Plain Text
Заголовок : SDH
Язык : English
Default : Нет
Forced : Нет
Меню
00:00:00.000 : en:00:00:00.000
00:04:09.499 : en:00:04:09.499
00:07:23.068 : en:00:07:23.068
00:15:50.116 : en:00:15:50.116
00:29:24.179 : en:00:29:24.179
00:38:53.081 : en:00:38:53.081
00:49:22.376 : en:00:49:22.376
01:02:23.365 : en:01:02:23.365
01:14:36.013 : en:01:14:36.013
01:23:24.917 : en:01:23:24.917
01:29:38.456 : en:01:29:38.456
01:35:00.987 : en:01:35:00.987
01:43:24.156 : en:01:43:24.156


_________________
Проголосуй за трекер Открытый торрент трекер - RUS-MEDIA.ORG

Проголосуй Открытый торрент трекер - RUS-MEDIA.ORG


Вернуться к началу
 Профиль Отправить личное сообщение  
 
   Похожие торренты   Автор   Торрент   Размер 
В этой теме нет новых непрочитанных сообщений. Внутреннее расследование / Internal Affairs [Триллер, драма, криминал, 1990] BDRip 720p, Mvo

salma3

23 | 9

7.43 ГБ

В этой теме нет новых непрочитанных сообщений. Внутреннее расследование / Internal Affairs [триллер, драма, криминал, 1990] BDRemux 1080p, Mvo

salma3

0 | 1

19.16 ГБ

В этой теме нет новых непрочитанных сообщений. Внутреннее переполнение 2 / Internal Overflow 2 (2016) WEBRip

salma3

116 | 28

1.86 ГБ

В этой теме нет новых непрочитанных сообщений. Internal Damnation 11 / Внутреннее Проклятие 11 (Chris Streams, Jules Jordan Video) [2016 г., All Sex, Anal, Big Tits, Creampie, Gonzo, Squirt, WEB-DL] (Split Scenes)

salma3

0 | 0

2.16 ГБ

В этой теме нет новых непрочитанных сообщений. [BigTitsAtWork.com / Brazzers.com] Valentina Jewels - Internal Affairs (03.10.2018) [All sex]

salma3

0 | 0

379.56 МБ

В этой теме нет новых непрочитанных сообщений. Internal Damnation 8 / Внутреннее Проклятие 8 (Chris Streams, Jules Jordan Video) [2014 г., A2M, All Sex, Anal, Big Tits, Creampie, Double Penetration, Gonzo, WEB-DL] (Split Scenes)

salma3

3 | 1

2.07 ГБ

В этой теме нет новых непрочитанных сообщений. Вопросы и ответы / Q & A [триллер, драма, криминал, 1990] BDRip, Mvo

salma3

16 | 0

2.18 ГБ


Начать новую тему Ответить на тему  [ 1 сообщение ] 




Для Мосгорсуда, Роскомнадзора и рекламодателей:: mosgorsud-torrent[собачка]yandex.ru
cron