Торрент файл
скачать торрент магнет ссылка Добавлен: 08 май 2018, 21:00
Размер: 1.79 ГБ
Сидеров: 7
Личеров: 9
Статус: (salma3)
Автор

СообщениеДобавлено: 08 май 2018, 21:00 

Не в сети
Супермодератор
Аватара пользователя
Дата регистрации:
15 фев 2012, 16:44
Возраст: 29
Спасибо: 7400 / 2147
Сообщения: 78381
Год выхода: 2006
Жанр: комедия, приключения, семейный
Режиссер: Уил Шрайнер

В ролях: Люк Уилсон, Логан Лерман, Бри Ларсон, Тим Блейк Нельсон, Нил Флинн, Кларк Грегг, Кирстен Уоррен, Джессика Коффил, Дин Коллинз, Роберт Вагнер, Эрик Филлипс, Джимми Баффетт, Джон Арчи, Роберт Доннер

О фильме:Школьник Рой Эберхардт переезжает вместе с семьёй из Монтаны во Флориду. Там он вместе с двумя новыми друзьями обнаружив угрозу местной популяции редких сов, бросает вызов жадным бизнессменам, продажным политикам и бездарным полицейским. Полные решимости защитить свою окружающую среду от губительного воздействия, друзья готовы на всё, чтобы не дать взрослым совершить большую ошибку.



Страна: США
Продолжительность: 01:30:48
Перевод: Профессиональный (многоголосый закадровый) R5

Файл
Кодек: H264
Качество: WEB-DLRip-AVC
Видео: 2 000 kb/s, 1024x560, 23.976fps
Звук:
Аудио 1: Русский MVO, AC3, 6 ch, 48 kHz, 448 kbps
Аудио 2: Английский, AC3, 6 ch, 48 kHz, 384 kbps
Субтитры: русские (R5), английские

General
Unique ID : 199812440958219853940231526494834604612 (0x965279F0C78FF98F878CF3132A053A44)
Complete name : d:DownloadsКрик совы.2006.WEB-DLRip-AVC.MVO.mkv
Format : Matroska
Format version : Version 4 / Version 2
File size : 1.79 GiB
Duration : 1 h 30 min
Overall bit rate : 2 821 kb/s
Encoded date : UTC 2018-05-07 15:58:47
Writing application : mkvmerge v8.3.0 ('Over the Horizon') 64bit
Writing library : libebml v1.3.1 + libmatroska v1.4.2
Video
ID : 1
Format : AVC
Format/Info : Advanced Video Codec
Format profile : High@L4.1
Format settings : CABAC / 10 Ref Frames
Format settings, CABAC : Yes
Format settings, ReFrames : 10 frames
Codec ID : V_MPEG4/ISO/AVC
Duration : 1 h 30 min
Bit rate : 2 000 kb/s
Width : 1 024 pixels
Height : 560 pixels
Display aspect ratio : 1.85:1
Frame rate mode : Constant
Frame rate : 23.976 (23976/1000) FPS
Color space : YUV
Chroma subsampling : 4:2:0
Bit depth : 8 bits
Scan type : Progressive
Bits/(Pixel*Frame) : 0.145
Stream size : 1.26 GiB (70%)
Writing library : x264 core 155 r2901
Encoding settings : cabac=1 / ref=10 / deblock=1:-3:-3 / analyse=0x3:0x113 / me=hex / subme=5 / psy=1 / psy_rd=0.00:0.00 / mixed_ref=0 / me_range=16 / chroma_me=1 / trellis=0 / 8x8dct=1 / cqm=0 / deadzone=21,11 / fast_pskip=1 / chroma_qp_offset=0 / threads=6 / lookahead_threads=1 / sliced_threads=0 / nr=0 / decimate=1 / interlaced=0 / bluray_compat=0 / constrained_intra=0 / bframes=3 / b_pyramid=0 / b_adapt=1 / b_bias=0 / direct=0 / weightb=1 / open_gop=0 / weightp=2 / keyint=250 / keyint_min=25 / scenecut=40 / intra_refresh=0 / rc_lookahead=40 / rc=abr / mbtree=1 / bitrate=2000 / ratetol=1.0 / qcomp=0.60 / qpmin=10 / qpmax=51 / qpstep=4 / vbv_maxrate=24000 / vbv_bufsize=24000 / nal_hrd=none / filler=0 / ip_ratio=1.40 / aq=1:1.00
Default : Yes
Forced : No
Audio #1
ID : 2
Format : AC-3
Format/Info : Audio Coding 3
Codec ID : A_AC3
Duration : 1 h 30 min
Bit rate mode : Constant
Bit rate : 448 kb/s
Channel(s) : 6 channels
Channel positions : Front: L C R, Side: L R, LFE
Sampling rate : 48.0 kHz
Frame rate : 31.250 FPS (1536 SPF)
Bit depth : 16 bits
Compression mode : Lossy
Stream size : 291 MiB (16%)
Language : Russian
Service kind : Complete Main
Default : Yes
Forced : No
Audio #2
ID : 3
Format : AC-3
Format/Info : Audio Coding 3
Codec ID : A_AC3
Duration : 1 h 30 min
Bit rate mode : Constant
Bit rate : 384 kb/s
Channel(s) : 6 channels
Channel positions : Front: L C R, Side: L R, LFE
Sampling rate : 48.0 kHz
Frame rate : 31.250 FPS (1536 SPF)
Bit depth : 16 bits
Compression mode : Lossy
Stream size : 249 MiB (14%)
Language : English
Service kind : Complete Main
Default : No
Forced : No
Text #1
ID : 4
Format : UTF-8
Codec ID : S_TEXT/UTF8
Codec ID/Info : UTF-8 Plain Text
Duration : 1 h 25 min
Bit rate : 119 b/s
Count of elements : 1255
Stream size : 75.0 KiB (0%)
Language : Russian
Default : No
Forced : No
Text #2
ID : 5
Format : UTF-8
Codec ID : S_TEXT/UTF8
Codec ID/Info : UTF-8 Plain Text
Duration : 1 h 30 min
Bit rate : 79 b/s
Count of elements : 1798
Stream size : 52.8 KiB (0%)
Language : English
Default : No
Forced : No
Menu
00:00:00.000 : en:Title
00:02:20.000 : en:New Kid
00:06:41.000 : en:Chasing Mullet
00:10:13.000 : en:Vandalism
00:14:42.000 : en:Stakeout
00:17:24.000 : en:Confronting Bullies
00:20:37.000 : en:Mullet's Hideout
00:24:42.000 : en:Delivering Shoes
00:31:35.000 : en:Muckle's 100th
00:37:03.000 : en:Dana's Revenge
00:40:42.000 : en:The Dog Bite
00:49:26.000 : en:Nature Tour
00:54:07.000 : en:Dana's Arrest
00:57:54.000 : en:Overnight Guest
01:00:46.000 : en:Missing Seat
01:04:29.000 : en:The Plan
01:13:28.000 : en:Ground Breaking
01:17:38.000 : en:Roy's Speech
01:24:52.000 : en:Happy Ending
01:26:47.000 : en:Credits


_________________
Проголосуй за трекер Открытый торрент трекер - RUS-MEDIA.ORG

Проголосуй Открытый торрент трекер - RUS-MEDIA.ORG


Вернуться к началу
 Профиль Отправить личное сообщение  
 
   Похожие торренты   Автор   Торрент   Размер 
В этой теме нет новых непрочитанных сообщений. Крик совы / Hoot [комедия, приключения, семейный, 2006] WEB-DL 720p, Mvo

salma3

0 | 1

3.06 ГБ

В этой теме нет новых непрочитанных сообщений. Крик Совы / The Cry of the Owl [Триллер, драма, 2009] BDRip 1080p, Dvo

salma3

5 | 10

8.23 ГБ

В этой теме нет новых непрочитанных сообщений. Крик совы / Le cri du hibou [триллер, драма, мелодрама, 1987] DVD9, Mvo

salma3

0 | 1

4.63 ГБ

В этой теме нет новых непрочитанных сообщений. Лунтик и его друзья [01-08x1-473,478-479 из 479+485] (мультфильм, детский, комедия, приключения, семейный, 2006-2016) WEB-DLRip от ExKinoRay

marya111

11 | 35

16.02 ГБ

В этой теме нет новых непрочитанных сообщений. Белый плен / Eight Below [Драма, приключения, семейный, 2006] WEB-DLRip-AVC, Dub

salma3

10 | 0

2.84 ГБ

В этой теме нет новых непрочитанных сообщений. Белый плен / Eight Below [Драма, приключения, семейный, 2006] WEB-DLRip 720, Dub [Open Matte]

salma3

12 | 6

4.56 ГБ

В этой теме нет новых непрочитанных сообщений. Белый плен / Eight Below [Драма, приключения, семейный, 2006] WEB-DLRip-AVC, Dub [Open Matte]

salma3

32 | 3

1.45 ГБ


Начать новую тему Ответить на тему  [ 1 сообщение ] 




Для Мосгорсуда, Роскомнадзора и рекламодателей:: mosgorsud-torrent[собачка]yandex.ru
cron