Торрент файл
скачать торрент магнет ссылка Добавлен: 10 июл 2018, 10:30
Размер: 1.69 ГБ
Сидеров: 0
Личеров: 0
Статус: (salma3)
Автор

СообщениеДобавлено: 10 июл 2018, 10:30 

Не в сети
Супермодератор
Аватара пользователя
Дата регистрации:
15 фев 2012, 16:44
Возраст: 29
Спасибо: 7401 / 2147
Сообщения: 78490
Страна: Италия, Болгария
Жанр: Историческая драма
Год выпуска: 1968
Продолжительность: 01:30:40
Перевод: Дублированный, профессиональный (двухголосый закадровый)
Режиссер: Лилиана Кавани / Liliana Cavani

В ролях: Сирил Кьюсак, Георгий Калоянчев, Георгий Черкелов, Николай Дойчев, Мирослав Миндов, Джиджи Баллиста, Паоло Грациози, Владимир Давчев, Мила Димитрова, Невена Коканова, Джулио Броджи

Описание: После сожжения Джордано Бруно в 1600 году Галилей сам открыл, что именно солнце находится в центре, а не земля, которая движется вокруг солнца. Церковь считает эту теорию Галилея ересью, но он продолжает свои исследования во Флоренции, пока его не арестовывают. В 1633 году он предстал перед инквизицией.



Кодек: х264
Качество: DVDRip-AVC
Видео: MPEG-4 AVC, 680х546@726x546, 25 fps, 2150 Кбит/с
Аудио: Русский, АС3, 2 сh, 192 Кбит/с, Советский дубляж
Аудио: Русский, АС3, 1 сh, 128 Кбит/с, Профессиональный (двухголосый закадровый) НТВ
Аудио: Итальянский, АС3, 2 сh, 192 Кбит/с
Субтитры: Нет
Главы: Есть


x264 [info]: frame I:874 Avg QP:15.95 size: 65139
x264 [info]: frame P:28238 Avg QP:18.89 size: 26352
x264 [info]: frame B:106888 Avg QP:20.37 size: 6184

Общее
Уникальный идентификатор : 173217421852572552619282615200496254052 (0x825076433E232A78B56D1D41ED807C64)
Полное имя : H:коллекцияГалилео Галилей 1968_DVDRip-AVC_KORSAR.mkv
Формат : Matroska
Версия формата : Version 2
Размер файла : 1,69 Гбайт
Продолжительность : 1 ч. 30 м.
Общий поток : 2664 Кбит/сек
Название фильма : mister.hats
Дата кодирования : UTC 2018-07-08 17:15:57
Программа кодирования : mkvmerge v5.8.0 ('No Sleep / Pillow') built on Sep 2 2012 15:37:04
Библиотека кодирования : libebml v1.2.3 + libmatroska v1.3.0

Видео
Идентификатор : 1
Формат : AVC
Формат/Информация : Advanced Video Codec
Профиль формата : High@L4.1
Настройки формата : CABAC / 14 Ref Frames
Параметр CABAC формата : Да
Параметр RefFrames формата : 14 кадров
Идентификатор кодека : V_MPEG4/ISO/AVC
Продолжительность : 1 ч. 30 м.
Битрейт : 2150 Кбит/сек
Ширина : 680 пикселей
Высота : 546 пикселей
Соотношение сторон : 4:3
Режим частоты кадров : Постоянный
Частота кадров : 25,000 кадров/сек
Цветовое пространство : YUV
Субдискретизация насыщенности : 4:2:0
Битовая глубина : 8 бит
Тип развёртки : Прогрессивная
Бит/(Пиксели*Кадры) : 0.232
Размер потока : 1,33 Гбайт (79%)
Библиотека кодирования : x264 core 152 r2851kMod ba24899
Настройки программы : cabac=1 / ref=14 / deblock=1:-2:-2 / analyse=0x3:0x133 / me=umh / subme=11 / psy=1 / fade_compensate=0.00 / psy_rd=1.05:0.10 / mixed_ref=1 / me_range=48 / chroma_me=1 / trellis=2 / 8x8dct=1 / cqm=0 / deadzone=21,11 / fast_pskip=0 / chroma_qp_offset=-3 / threads=12 / lookahead_threads=3 / sliced_threads=0 / nr=0 / decimate=0 / interlaced=0 / bluray_compat=0 / constrained_intra=0 / bframes=10 / b_pyramid=2 / b_adapt=2 / b_bias=0 / direct=3 / weightb=1 / open_gop=0 / weightp=2 / keyint=240 / keyint_min=24 / scenecut=40 / intra_refresh=0 / rc_lookahead=40 / rc=2pass / mbtree=0 / bitrate=2150 / ratetol=1.0 / qcomp=0.60 / qpmin=0 / qpmax=39 / qpstep=4 / cplxblur=20.0 / qblur=0.5 / vbv_maxrate=50000 / vbv_bufsize=62500 / nal_hrd=none / filler=0 / ip_ratio=1.25 / pb_ratio=1.30 / aq=1:1.00
Язык : English
Default : Да
Forced : Нет
Цветовой диапазон : Limited
Основные цвета : BT.601 PAL
Характеристики трансфера : BT.470 System B, BT.470 System G
Коэффициенты матрицы : BT.470 System B, BT.470 System G

Аудио #1
Идентификатор : 2
Формат : AC-3
Формат/Информация : Audio Coding 3
Параметр Endianness формата : Big
Идентификатор кодека : A_AC3
Продолжительность : 1 ч. 30 м.
Вид битрейта : Постоянный
Битрейт : 192 Кбит/сек
Каналы : 2 канала
Расположение каналов : Front: L R
Частота : 48,0 КГц
Частота кадров : 31,250 кадров/сек (1536 SPF)
Битовая глубина : 16 бит
Метод сжатия : С потерями
Размер потока : 125 Мбайт (7%)
Язык : Russian
Default : Да
Forced : Нет

Аудио #2
Идентификатор : 3
Формат : AC-3
Формат/Информация : Audio Coding 3
Параметр Endianness формата : Big
Идентификатор кодека : A_AC3
Продолжительность : 1 ч. 30 м.
Вид битрейта : Постоянный
Битрейт : 128 Кбит/сек
Каналы : 1 канал
Расположение каналов : Front: C
Частота : 48,0 КГц
Частота кадров : 31,250 кадров/сек (1536 SPF)
Битовая глубина : 16 бит
Метод сжатия : С потерями
Размер потока : 83,0 Мбайт (5%)
Язык : Russian
Default : Нет
Forced : Нет

Аудио #3
Идентификатор : 4
Формат : AC-3
Формат/Информация : Audio Coding 3
Параметр Endianness формата : Big
Идентификатор кодека : A_AC3
Продолжительность : 1 ч. 30 м.
Вид битрейта : Постоянный
Битрейт : 192 Кбит/сек
Каналы : 2 канала
Расположение каналов : Front: L R
Частота : 48,0 КГц
Частота кадров : 31,250 кадров/сек (1536 SPF)
Битовая глубина : 16 бит
Метод сжатия : С потерями
Размер потока : 125 Мбайт (7%)
Язык : Italian
Default : Нет
Forced : Нет

Меню
00:00:00.000 : en:Chapter 1
00:06:24.000 : en:Chapter 2
00:12:57.120 : en:Chapter 3
00:18:36.960 : en:Chapter 4
00:24:49.920 : en:Chapter 5
00:29:11.040 : en:Chapter 6
00:33:50.880 : en:Chapter 7
00:37:23.040 : en:Chapter 8
00:41:12.000 : en:Chapter 9
00:47:05.760 : en:Chapter 10
00:51:47.040 : en:Chapter 11
00:55:39.840 : en:Chapter 12
01:00:27.840 : en:Chapter 13
01:05:02.880 : en:Chapter 14
01:10:20.160 : en:Chapter 15
01:14:00.000 : en:Chapter 16
01:18:46.080 : en:Chapter 17
01:22:08.160 : en:Chapter 18






_________________
Проголосуй за трекер Открытый торрент трекер - RUS-MEDIA.ORG

Проголосуй Открытый торрент трекер - RUS-MEDIA.ORG


Вернуться к началу
 Профиль Отправить личное сообщение  
 
   Похожие торренты   Автор   Торрент   Размер 
В этой теме нет новых непрочитанных сообщений. Маг / The Magus [драма, фэнтези, детектив, 1968] DVDRip-AVC, Mvo

salma3

14 | 2

1.45 ГБ

В этой теме нет новых непрочитанных сообщений. Обнаженная Маха / Volaverunt [Историческая драма, триллер, 1999] DVDRip, Mvo

salma3

111 | 24

690.4 МБ

В этой теме нет новых непрочитанных сообщений. Прощай, друг! / Adieu l'ami [Боевик, триллер, драма, 1968] DVDRip-AVC, Mvo+Avo

salma3

106 | 85

2.54 ГБ

В этой теме нет новых непрочитанных сообщений. Тайная церемония / Secret Ceremony [драма, триллер, 1968] DVDRip, Avo

salma3

18 | 5

1.46 ГБ

В этой теме нет новых непрочитанных сообщений. Девушка в золотых сапожках / Girl in Gold Boots [ Драма, криминал, музыка,1968] DVDRip, Mvo

salma3

2 | 1

1.47 ГБ

В этой теме нет новых непрочитанных сообщений. Футбол. Чемпионат Европы 1968-2004 (Все голы) (1968-2004) SATRip-AVC | 50 fps

salma3

32 | 35

14.7 ГБ

В этой теме нет новых непрочитанных сообщений. Блю / Blue [Вестерн, 1968] DVDRip, Mvo

salma3

0 | 0

1.46 ГБ


Начать новую тему Ответить на тему  [ 1 сообщение ] 




Для Мосгорсуда, Роскомнадзора и рекламодателей:: mosgorsud-torrent[собачка]yandex.ru
cron