Торрент файл
скачать торрент магнет ссылка Добавлен: 24 июл 2018, 20:36
Размер: 1.97 ГБ
Сидеров: 0
Личеров: 0
Статус: (salma3)
Автор

СообщениеДобавлено: 24 июл 2018, 20:36 

Не в сети
Супермодератор
Аватара пользователя
Дата регистрации:
15 фев 2012, 16:44
Возраст: 29
Спасибо: 7401 / 2147
Сообщения: 78594
Год выхода: 2004
Жанр: Боевик, драма, комедия
Режиссер: Бретт Рэтнер

В ролях: Пирс Броснан, Сальма Хайек, Вуди Харрельсон, Дон Чидл, Наоми Харрис, Джефф Гарлин, Том МакГауэн, Лиза Торнхилл, Крис Пенн, Марк Мозес, Обба Бабатунде, Микелти Уильямсон, Роберт Кертис, Шакил О'Нил, Эндрю Фисцелла, Джанни Руссо, Сюзанна Гибб, Рис Риос, Натали Джонс, Кристофер Абрам, Шакара Ледэрд, Майкл В. Браун, Одри Куок, Анджела Гэйр, Дэвид Рейверс, Камал Мараяти, Брайан Скотт Фицджералд, Джиллиан Вигман, Кристофер Холт, Джэми Амарал, Ноэми Ленор, Николь Холт, Эйприл Мо

О фильме:
Вор экстра-класса Макс Бернетт, несмотря на все усилия спецагента ФБР Стэна Ллойда, вот уже семь лет сидящего у него на хвосте, ухитряется таки выкрасть прямо из-под носа у Стэна гигантский алмаз. Теперь Макс намерен исполнить желание своей девушки и удалиться на покой, на тропический остров с роскошным бунгало на берегу океана. Но Стэн следует за ним, на острове в скором времени состоится выставка драгоценных камней, и Стэн на все сто уверен, что Макс не упустит такую возможность вернуться в дело.



Страна: США
Продолжительность: 01:37:28
Перевод: Дублированный

Файл
Кодек: x.264
Качество: HDRip-AVC | исх. BDRip 1080p
Видео: h264 / 2510 kbps / 1024x426 / 23.976 fps
Звук: 48 kHz / 384 kbps
Субтитры: Нет

Релиз от: Alukard14

Общее
Уникальный идентификатор : 234914857121072008666396198276817648724 (0xB0BAF4AD6A0F51C78D0574EF6D7E7C54)
Полное имя : E:TestRipAfter.the.Sunset.by.Alukard14.mkv
Формат : Matroska
Версия формата : Version 2
Размер файла : 1,97 Гбайт
Продолжительность : 1 ч. 37 м.
Общий поток : 2895 Кбит/сек
Дата кодирования : UTC 2018-07-24 09:52:13
Программа кодирования : mkvmerge v6.9.1 ('Blue Panther') 32bit built on Apr 18 2014 18:15:44
Библиотека кодирования : libebml v1.3.0 + libmatroska v1.4.1

Видео
Идентификатор : 1
Формат : AVC
Формат/Информация : Advanced Video Codec
Профиль формата : High@L4.1
Настройки формата : CABAC / 11 Ref Frames
Параметр CABAC формата : Да
Параметр RefFrames формата : 11 кадров
Идентификатор кодека : V_MPEG4/ISO/AVC
Продолжительность : 1 ч. 37 м.
Битрейт : 2510 Кбит/сек
Ширина : 1024 пикселя
Высота : 426 пикселей
Соотношение сторон : 2,40:1
Режим частоты кадров : Постоянный
Частота кадров : 23,976 кадра/сек
Цветовое пространство : YUV
Субдискретизация насыщенности : 4:2:0
Битовая глубина : 8 бит
Тип развёртки : Прогрессивная
Бит/(Пиксели*Кадры) : 0.240
Размер потока : 1,67 Гбайт (85%)
Библиотека кодирования : x264 core 148 r2638 7599210
Настройки программы : cabac=1 / ref=11 / deblock=1:-3:-3 / analyse=0x3:0x113 / me=umh / subme=11 / psy=1 / psy_rd=1.00:0.20 / mixed_ref=1 / me_range=48 / chroma_me=1 / trellis=2 / 8x8dct=1 / cqm=0 / deadzone=21,11 / fast_pskip=0 / chroma_qp_offset=-3 / threads=9 / lookahead_threads=1 / sliced_threads=0 / nr=0 / decimate=0 / interlaced=0 / bluray_compat=0 / constrained_intra=0 / bframes=3 / b_pyramid=2 / b_adapt=0 / b_bias=0 / direct=1 / weightb=1 / open_gop=0 / weightp=2 / keyint=240 / keyint_min=24 / scenecut=40 / intra_refresh=0 / rc_lookahead=40 / rc=2pass / mbtree=1 / bitrate=2510 / ratetol=1.0 / qcomp=0.60 / qpmin=0 / qpmax=69 / qpstep=2 / cplxblur=20.0 / qblur=0.5 / vbv_maxrate=14000 / vbv_bufsize=14000 / nal_hrd=none / filler=0 / ip_ratio=1.40 / aq=1:1.00
Default : Да
Forced : Нет

Аудио
Идентификатор : 2
Формат : AC-3
Формат/Информация : Audio Coding 3
Идентификатор кодека : A_AC3
Продолжительность : 1 ч. 37 м.
Вид битрейта : Постоянный
Битрейт : 384 Кбит/сек
Каналы : 6 каналов
Расположение каналов : Front: L C R, Side: L R, LFE
Частота : 48,0 КГц
Частота кадров : 31,250 кадров/сек (1536 SPF)
Битовая глубина : 16 бит
Метод сжатия : С потерями
Размер потока : 268 Мбайт (13%)
Default : Да
Forced : Нет



_________________
Проголосуй за трекер Открытый торрент трекер - RUS-MEDIA.ORG

Проголосуй Открытый торрент трекер - RUS-MEDIA.ORG


Вернуться к началу
 Профиль Отправить личное сообщение  
 
   Похожие торренты   Автор   Торрент   Размер 
В этой теме нет новых непрочитанных сообщений. После заката / After the Sunset [боевик, драма, комедия, криминал, 2004] BDRip, Dvo

salma3

170 | 17

1.46 ГБ

В этой теме нет новых непрочитанных сообщений. После заката / After The Sunset [Боевик, драма, комедия, 2004] BDRip 1080p. Dub

salma3

0 | 0

11.64 ГБ

В этой теме нет новых непрочитанных сообщений. После заката / After the Sunset [Боевик, драма, комедия, 2004] BDRip 720p. Dub

salma3

0 | 0

4.56 ГБ

В этой теме нет новых непрочитанных сообщений. Песнь заката / Sunset Song [драма, 2015] HDRip. Dub

salma3

86 | 7

1.46 ГБ

В этой теме нет новых непрочитанных сообщений. Песнь заката / Sunset Song [Драма, экранизация, 2015] HDTVRip 1080p, Dub

salma3

11 | 5

7.15 ГБ

В этой теме нет новых непрочитанных сообщений. Закат / Sunset [Боевик, триллер, комедия, 1988] WEB-DL 1080p, Mvo

salma3

0 | 0

11.08 ГБ

В этой теме нет новых непрочитанных сообщений. Вечерний экспресс «Сансет Лимитед» / The Sunset Limited [драма, 2010] HDRip, Mvo

salma3

78 | 9

1.37 ГБ


Начать новую тему Ответить на тему  [ 1 сообщение ] 




Для Мосгорсуда, Роскомнадзора и рекламодателей:: mosgorsud-torrent[собачка]yandex.ru
cron