Торрент файл
скачать торрент магнет ссылка Добавлен: 19 авг 2018, 20:30
Размер: 1.45 ГБ
Сидеров: 65
Личеров: 40
Статус: (salma3)
Автор

СообщениеДобавлено: 19 авг 2018, 20:30 

Не в сети
Супермодератор
Аватара пользователя
Дата регистрации:
15 фев 2012, 16:44
Возраст: 29
Спасибо: 7400 / 2147
Сообщения: 78259
Год выхода: 2018
Жанр: Комедия, приключения, семейный
Режиссер: Раджа Госнелл

В ролях: Уилл Арнетт, Лудакрис, Наташа Лионн, Стэнли Туччи, Джордин Спаркс, Габриэль Иглесиас, Шакил О’Нил, Алан Камминг, Омар Чапарро, Андерс Холм и др.

О фильме: Серьезному детективу предстоит работа с необычным напарником — говорящим псом Максом, который не замолкает ни на минуту и фанатеет от рэпа. Вместе они отправятся в Лас-Вегас, где на элитной выставке собак проворачиваются аферы по перепродаже редких животных. И сядут мошенникам на хвост.




Страна: Великобритания, США
Продолжительность: 01:30:45
Перевод: Дублированный | iTunes

Файл
Формат: AVI
Качество: BDRip
Видео: Xvid, 720x384, ~1895 kbps, 23,976 fps
Звук: русский, AC3, 5.1, 48 kHz, 384 kbps | iTunes



General
Полное имя : F:TorrentShowDogsBDRip.avi
Формат : AVI
Формат/Информация : Audio Video Interleave
Размер файла : 1.45 GiB
Продолжительность : 1 h 30 min
Общий поток : 2 288 kb/s
Библиотека кодирования : VirtualDub build 35491/release

Video
Идентификатор : 0
Формат : MPEG-4 Visual
Профиль формата : Advanced Simple@L5
Настройки формата : BVOP2 / Custom Matrix
Параметр BVOP формата : 2
Параметр QPel формата : No
Параметр GMC формата : No warppoints
Параметр матрицы формата : Custom
Идентификатор кодека : XVID
Идентификатор кодека/Подсказка : XviD
Продолжительность : 1 h 30 min
Битрейт : 1 895 kb/s
Ширина : 720 pixels
Высота : 384 pixels
Соотношение сторон : 1.85:1
Частота кадров : 23.976 (24000/1001) FPS
Цветовое пространство : YUV
Субдискретизация насыщенности : 4:2:0
Битовая глубина : 8 bits
Тип развёртки : Progressive
Метод сжатия : Lossy
Бит/(Пиксели*Кадры) : 0.286
Размер потока : 1.20 GiB (83%)
Библиотека кодирования : XviD 67

Audio
Идентификатор : 1
Формат : AC-3
Формат/Информация : Audio Coding 3
Идентификатор кодека : 2000
Продолжительность : 1 h 30 min
Вид битрейта : Constant
Битрейт : 384 kb/s
Каналы : 6 channels
Расположение каналов : Front: L C R, Side: L R, LFE
Частота : 48.0 kHz
Частота кадров : 31.250 FPS (1536 SPF)
Битовая глубина : 16 bits
Метод сжатия : Lossy
Размер потока : 249 MiB (17%)
Выравнивание : Aligned on interleaves
Продолжительность промежутка : 42 ms (1.00 video frame)
Время предзагрузки промежутка : 512 ms




_________________
Проголосуй за трекер Открытый торрент трекер - RUS-MEDIA.ORG

Проголосуй Открытый торрент трекер - RUS-MEDIA.ORG


Вернуться к началу
 Профиль Отправить личное сообщение  
 
   Похожие торренты   Автор   Торрент   Размер 
В этой теме нет новых непрочитанных сообщений. Псы под прикрытием / Show Dogs [Комедия, приключения, семейный, 2018] BDRip-AVC, Dub [iTunes]

salma3

0 | 0

1.42 ГБ

В этой теме нет новых непрочитанных сообщений. Псы под прикрытием / Show Dogs [Комедия, приключения, семейный, 2018] BDRip 1080p, Dub [iTunes]

salma3

17 | 7

8.89 ГБ

В этой теме нет новых непрочитанных сообщений. Снежные псы / Snow Dogs [комедия, приключения, семейный, 2002] BDRip 1080p, Dub

salma3

0 | 0

10.12 ГБ

В этой теме нет новых непрочитанных сообщений. Снежные псы / Snow Dogs [комедия, приключения, семейный, спорт, 2002] WEB-DLRip-AVC, Mvo

salma3

12 | 4

746.36 МБ

В этой теме нет новых непрочитанных сообщений. Снежные псы / Snow Dogs [комедия, приключения, семейный, спорт, 2002] WEB-DLRip-AVC, Mvo

salma3

20 | 1

2.18 ГБ

В этой теме нет новых непрочитанных сообщений. Альфа / Alpha [Драма, приключения, семейный, 2018] BDRip 1080p, Mvo [iTunes]

salma3

0 | 0

8.64 ГБ

В этой теме нет новых непрочитанных сообщений. Альфа / Alpha [Драма, приключения, семейный, 2018] BDRip 720p, Mvo [iTunes]

salma3

0 | 0

4.92 ГБ


Начать новую тему Ответить на тему  [ 1 сообщение ] 




Для Мосгорсуда, Роскомнадзора и рекламодателей:: mosgorsud-torrent[собачка]yandex.ru
cron