Торрент файл
скачать торрент магнет ссылка Добавлен: 07 сен 2018, 20:55
Размер: 2.9 ГБ
Сидеров: 0
Личеров: 0
Статус: (salma3)
Автор

СообщениеДобавлено: 07 сен 2018, 20:55 

Не в сети
Супермодератор
Аватара пользователя
Дата регистрации:
15 фев 2012, 16:44
Возраст: 29
Спасибо: 7433 / 2147
Сообщения: 80216
Год выхода: 2002
Жанр: Триллер, драма, детектив
Режиссер: Боб Рафелсон

В ролях: Сэмюэл Л. Джексон, Милла Йовович, Стеллан Скарсгард, Даг Хатчинсон, Джосс Экленд, Грэйс Забриски, Джонатан Хиггинс, Шеннон Лоусон, Роберт Уэлш

О фильме:
Фильм рассказывает о приключении полицейского детектива Джека, который пытается помочь своей приятельнице найти пропавшую дочь. Дружеская услуга превращается в кошмар. Имея всего лишь фотографию девочки и название улицы, Джек начинает расследование. Оказавшись заложником бандитов, Джек понимает, что главарем банды на самом деле управляет его красивая подружка Эрин. Ожидая увидеть перед собой властную и уверенную в себе женщину, Джек сталкивается с нежной и романтичной девушкой. Действительно ли она так беззащитна, или просто управляет им, как и всеми остальными? Только финал откроет, чего стоит каждый из них..



Страна: Германия, США
Продолжительность: 01:37:29
Перевод: Профессиональный (дублированный) Мосфильм-Мастер

Файл
Кодек: x264
Качество: BDRip-AVC
Видео: High@L4.1, 1088x596, ~3425 kbps, 24 fps
Аудио #1: AC-3, 6 ch, 448 kbps (Rus)
Аудио #2: AC-3, 6 ch, 384 kbps (Eng)
Субтитры: Русские, английские

x264 info
x264 info: frame I:1030 Avg QP:12.11 size: 80059
x264 info: frame P:34359 Avg QP:14.35 size: 32693
x264 info: frame B:104986 Avg QP:16.85 size: 12352
x264 info: consecutive B-frames: 2.9% 4.2% 11.1% 29.5% 19.8% 25.8% 4.9% 1.0% 0.4% 0.2% 0.1% 0.2%

General
Unique ID : 119425926445740811696892005096877589285 (0x59D898C715E4B63AC88E365261FA0325)
Complete name : G:Видео_1Дом на Турецкой улице_2002_BDRIP-AVC_[-=DoMiNo=-].mkv
Format : Matroska
Format version : Version 4 / Version 2
File size : 2.90 GiB
Duration : 1 h 37 min
Overall bit rate : 4 260 kb/s
Movie name : Дом на Турецкой улице
Deion : Фильм рассказывает о приключении полицейского детектива Джека, который пытается помочь своей приятельнице найти пропавшую дочь. Дружеская услуга превращается в кошмар. Имея всего лишь фотографию девочки и название улицы, Джек начинает расследование. Оказавшись заложником бандитов, Джек понимает, что главарем банды на самом деле управляет его красивая подружка Эрин. Ожидая увидеть перед собой властную и уверенную в себе женщину, Джек сталкивается с нежной и романтичной девушкой. Действительно ли она так беззащитна, или просто управляет им, как и всеми остальными? Только финал откроет, чего стоит каждый из них..
Writing application : XviD4PSP 7.0.456 DAILY
Writing library : Lavf57.71.100
ErrorDetectionType : Per level 1
Attachments : poster.jpg
ACTORS : Samuel L. Jackson, Milla Jovovich, Stellan Skarsgård, Doug Hutchison, Joss Ackland, Grace Zabriskie, Jonathan Higgins, Shannon Lawson, Robert Welch, Francis X. McCarthy, Shawn Roberts, Terence Bowman, Robert Brewster, Noël Burton
COUNTRY : United States
DATE : 2002-06-28
DIRECTOR : Bob Rafelson
ENCODING_INFO : MATROSKA,WEBM > MKV Пользовательский / H264 > X264 VBR-2P 3425kbps Пользовательский_vbr_x2 / AC3 > COPY Безопасное / AC3 > COPY Безопасное
GENRE : боевик, криминал, драма, детектив, триллер
HD_VIDEO : 1
ITUNEXTC : mpaa|R|400|
Language : und
MEDIA_TYPE : 9
ORIGINAL_TITLE : No Good Deed
PRODUCER : Barry M. Berg, David Braun, Herb Nanas, Sam Perlmutter, Maxime Rémillard
PUBLISHER : ApolloMedia Distribution, Kismet Entertainment Group, Remstar Productions, Seven Arts Films
RATING : 5.30
WRITER : Christopher Canaan, Steve Barancik

Video
ID : 1
Format : AVC
Format/Info : Advanced Video Codec
Format profile : High@L4.1
Format settings : CABAC / 12 Ref Frames
Format settings, CABAC : Yes
Format settings, ReFrames : 12 frames
Codec ID : V_MPEG4/ISO/AVC
Duration : 1 h 37 min
Bit rate : 3 425 kb/s
Width : 1 088 pixels
Height : 596 pixels
Display aspect ratio : 1.85:1
Frame rate mode : Constant
Frame rate : 24.000 FPS
Color space : YUV
Chroma subsampling : 4:2:0
Bit depth : 8 bits
Scan type : Progressive
Bits/(Pixel*Frame) : 0.220
Stream size : 2.28 GiB (78%)
Title : RIP_BY_-=DoMiNo=-
Writing library : x264 core 155 r2901M 7d0ff22
Encoding settings : cabac=1 / ref=12 / deblock=1:-3:-3 / analyse=0x3:0x133 / me=umh / subme=11 / psy=1 / psy_rd=1.00:0.03 / mixed_ref=1 / me_range=32 / chroma_me=1 / trellis=2 / 8x8dct=1 / cqm=0 / deadzone=21,11 / fast_pskip=0 / chroma_qp_offset=-3 / threads=6 / lookahead_threads=1 / sliced_threads=0 / nr=0 / decimate=1 / interlaced=0 / bluray_compat=0 / constrained_intra=0 / bframes=11 / b_pyramid=2 / b_adapt=2 / b_bias=0 / direct=3 / weightb=1 / open_gop=0 / weightp=2 / keyint=240 / keyint_min=24 / scenecut=40 / intra_refresh=0 / rc_lookahead=120 / rc=2pass / mbtree=0 / bitrate=3425 / ratetol=1.0 / qcomp=0.65 / qpmin=0 / qpmax=69 / qpstep=4 / cplxblur=20.0 / qblur=0.5 / vbv_maxrate=50000 / vbv_bufsize=62500 / nal_hrd=none / filler=0 / ip_ratio=1.40 / pb_ratio=1.30 / aq=1:0.85
Language : English
Default : Yes
Forced : No

Audio #1
ID : 2
Format : AC-3
Format/Info : Audio Coding 3
Commercial name : Dolby Digital
Codec ID : A_AC3
Duration : 1 h 37 min
Bit rate mode : Constant
Bit rate : 448 kb/s
Channel(s) : 6 channels
Channel positions : Front: L C R, Side: L R, LFE
Sampling rate : 48.0 kHz
Frame rate : 31.250 FPS (1536 SPF)
Bit depth : 16 bits
Compression mode : Lossy
Stream size : 312 MiB (11%)
Title : Dub
Language : Russian
Service kind : Complete Main
Default : Yes
Forced : No

Audio #2
ID : 3
Format : AC-3
Format/Info : Audio Coding 3
Commercial name : Dolby Digital
Codec ID : A_AC3
Duration : 1 h 37 min
Bit rate mode : Constant
Bit rate : 384 kb/s
Channel(s) : 6 channels
Channel positions : Front: L C R, Side: L R, LFE
Sampling rate : 48.0 kHz
Frame rate : 31.250 FPS (1536 SPF)
Bit depth : 16 bits
Compression mode : Lossy
Stream size : 268 MiB (9%)
Title : ENG
Language : English
Service kind : Complete Main
Default : No
Forced : No

Text #1
ID : 4
Format : UTF-8
Codec ID : S_TEXT/UTF8
Codec ID/Info : UTF-8 Plain Text
Title : RUS
Language : Russian
Default : Yes
Forced : No

Text #2
ID : 5
Format : UTF-8
Codec ID : S_TEXT/UTF8
Codec ID/Info : UTF-8 Plain Text
Title : ENG
Language : English
Default : No
Forced : No

Menu
00:00:00.000 : :Chapter 01
00:01:00.478 : :Chapter 02
00:18:31.936 : :Chapter 03
00:36:36.353 : :Chapter 04
00:54:40.561 : :Chapter 05
01:13:58.103 : :Chapter 06
01:33:52.145 : :Chapter 07


_________________
Проголосуй за трекер Открытый торрент трекер - RUS-MEDIA.ORG

Проголосуй Открытый торрент трекер - RUS-MEDIA.ORG


Вернуться к началу
 Профиль Отправить личное сообщение  
 
   Похожие торренты   Автор   Торрент   Размер 
В этой теме нет новых непрочитанных сообщений. Дом на Турецкой улице / No Good Deed / The House on Turk Street [Триллер, драма, детектив, 2002] BDRip, Dub

salma3

0 | 0

1.45 ГБ

В этой теме нет новых непрочитанных сообщений. Дом на турецкой улице / The House on Turk Street / No Good Deed [Триллер, драма, детектив, 2002] BDRemux 1080p, Dub

salma3

10 | 5

13.45 ГБ

В этой теме нет новых непрочитанных сообщений. Дом на Турецкой улице / The House on Turk Street [драма, триллер, 2002] HDRip-AVC, Dub

salma3

197 | 39

745.95 МБ

В этой теме нет новых непрочитанных сообщений. Дом на Турецкой улице / No Good Deed [боевик, триллер, драма, 2002] BDRip 1080p, Dub

salma3

0 | 0

7.37 ГБ

В этой теме нет новых непрочитанных сообщений. Кошмар на улице Вязов / A Nightmare on Elm Street [Ужасы, Триллер, Детектив, 2010] BDRip-AVC, Avo

salma3

33 | 6

1.85 ГБ

В этой теме нет новых непрочитанных сообщений. На греческой улице... / The House on Sorority Row [ужасы, триллер, детектив, 1983] BDRip-AVC, Dvo

salma3

0 | 0

2.18 ГБ

В этой теме нет новых непрочитанных сообщений. На греческой улице... / The House on Sorority Row [ужасы, триллер, детектив, 1983] BDRip, Dvo

salma3

84 | 30

1.46 ГБ


Начать новую тему Ответить на тему  [ 1 сообщение ] 




Для Мосгорсуда, Роскомнадзора и рекламодателей:: mosgorsud-torrent[собачка]yandex.ru
cron