Торрент файл
скачать торрент магнет ссылка Добавлен: 16 окт 2018, 16:20
Размер: 1.28 ГБ
Сидеров: 119
Личеров: 47
Статус: (salma3)
Автор

СообщениеДобавлено: 16 окт 2018, 16:20 

В сети
Супермодератор
Аватара пользователя
Дата регистрации:
15 фев 2012, 16:44
Возраст: 29
Спасибо: 7401 / 2147
Сообщения: 78579
Год выхода: 2018
Жанр: Ужасы
Режиссер: Олаф де Флёр Йоханнессон

В ролях: Флоренс Пью, Селия Имри, Бен Ллойд-Хьюз, Скотт Чэмберс и другие

О фильме:
Джексон и Энджела зарабатывают на жизнь тем, что притворяются экстрасенсами и делают вид, что избавляют людей от привидений, в которых они сами не верят. Но в их новом деле что-то пошло не по плану.



Страна: США, Catalyst Global Media
Продолжительность: 01:29:14
Перевод: Любительский (двухголосый закадровый) | HiWay Grope

Файл
Кодек: MPEG-4 AVC/x.264
Качество: WEBRip-AVC
Видео: 720x300, 24.000 fps, ~1700 kbps, 0.328 bit/pixel
Аудио rus: AC3, 48 kHz, 6 ch, 384 Kbps

Реклама: присутствует

Семпл

General
Unique ID : 160093616377556569618163480102745112027 (0x7870E8B22BD8AAB00610FCDEC8FF7DDB)
Complete name : D:Malevolent.2018.WEBRip.HiWayGropeMalevolent.2018.WEBRip-AVC.HiWayGrope.mkv
Format : Matroska
Format version : Version 4 / Version 2
File size : 1.28 GiB
Duration : 1 h 29 min
Overall bit rate : 2 047 kb/s
Encoded date : UTC 2018-10-16 08:19:38
Writing application : mkvmerge v27.0.0 ('Metropolis') 64-bit
Writing library : libebml v1.3.6 + libmatroska v1.4.9

Video
ID : 1
Format : AVC
Format/Info : Advanced Video Codec
Format profile : High@L4.1
Format settings : CABAC / 4 Ref Frames
Format settings, CABAC : Yes
Format settings, RefFrames : 4 frames
Codec ID : V_MPEG4/ISO/AVC
Duration : 1 h 29 min
Bit rate : 1 700 kb/s
Width : 720 pixels
Height : 300 pixels
Display aspect ratio : 2.40:1
Original display aspect ratio : 2.40:1
Frame rate mode : Constant
Frame rate : 24.000 FPS
Color space : YUV
Chroma subsampling : 4:2:0
Bit depth : 8 bits
Scan type : Progressive
Bits/(Pixel*Frame) : 0.328
Stream size : 1.04 GiB (81%)
Writing library : x264 core 155 r2901M 7d0ff22
Encoding settings : cabac=1 / ref=3 / deblock=1:0:0 / analyse=0x3:0x133 / me=hex / subme=7 / psy=1 / psy_rd=1.00:0.20 / mixed_ref=1 / me_range=16 / chroma_me=1 / trellis=1 / 8x8dct=1 / cqm=0 / deadzone=21,11 / fast_pskip=1 / chroma_qp_offset=-3 / threads=21 / lookahead_threads=2 / sliced_threads=0 / nr=0 / decimate=1 / interlaced=0 / bluray_compat=0 / constrained_intra=0 / bframes=3 / b_pyramid=2 / b_adapt=2 / b_bias=0 / direct=3 / weightb=1 / open_gop=0 / weightp=2 / keyint=240 / keyint_min=24 / scenecut=40 / intra_refresh=0 / rc_lookahead=40 / rc=cbr / mbtree=1 / bitrate=1700 / ratetol=1.0 / qcomp=0.60 / qpmin=0 / qpmax=69 / qpstep=4 / vbv_maxrate=1700 / vbv_bufsize=25000 / nal_hrd=none / filler=0 / ip_ratio=1.40 / aq=1:1.00
Language : English
Default : Yes
Forced : No
Color range : Limited
Color primaries : BT.709
Transfer characteristics : BT.709
Matrix coefficients : BT.709

Audio
ID : 2
Format : AC-3
Format/Info : Audio Coding 3
Codec ID : A_AC3
Duration : 1 h 29 min
Bit rate mode : Constant
Bit rate : 384 kb/s
Channel(s) : 6 channels
Channel positions : Front: L C R, Side: L R, LFE
Sampling rate : 48.0 kHz
Frame rate : 31.250 FPS (1536 SPF)
Bit depth : 16 bits
Compression mode : Lossy
Stream size : 245 MiB (19%)
Language : Russian
Service kind : Complete Main
Default : Yes
Forced : No



Релиз от: HiWay Grope


_________________
Проголосуй за трекер Открытый торрент трекер - RUS-MEDIA.ORG

Проголосуй Открытый торрент трекер - RUS-MEDIA.ORG


Вернуться к началу
 Профиль Отправить личное сообщение  
 
   Похожие торренты   Автор   Торрент   Размер 
В этой теме нет новых непрочитанных сообщений. Злобность / Malevolent [Ужасы, 2018] WEBRip 720p, Dvo

salma3

0 | 0

1.94 ГБ

В этой теме нет новых непрочитанных сообщений. Кукловод / He's Out There [Ужасы, 2018] WEBRip, Avo

salma3

209 | 17

1.11 ГБ

В этой теме нет новых непрочитанных сообщений. Крайность / Extremity [Ужасы, 2018] WEBRip, Dvo

salma3

0 | 0

1004.03 МБ

В этой теме нет новых непрочитанных сообщений. Тьма / The Dark [Ужасы, 2018] WEBRip, Dvo

salma3

27 | 12

1 ГБ

В этой теме нет новых непрочитанных сообщений. Зависимость / Habit [Ужасы, 2018] WEBRip, Dvo

salma3

95 | 21

956.57 МБ

В этой теме нет новых непрочитанных сообщений. Рейс 666 / Flight 666 [Ужасы, 2018] WEBRip, dvo

salma3

234 | 115

1.37 ГБ

В этой теме нет новых непрочитанных сообщений. Эпидемия / Epidemic [Ужасы, 2018] WEBRip, Dvo

salma3

50 | 49

936.28 МБ


Начать новую тему Ответить на тему  [ 1 сообщение ] 




Для Мосгорсуда, Роскомнадзора и рекламодателей:: mosgorsud-torrent[собачка]yandex.ru
cron