Торрент файл
скачать торрент магнет ссылка Добавлен: 17 окт 2018, 11:18
Размер: 1.43 ГБ
Сидеров: 0
Личеров: 0
Статус: (salma3)
Автор

СообщениеДобавлено: 17 окт 2018, 11:18 

Не в сети
Супермодератор
Аватара пользователя
Дата регистрации:
15 фев 2012, 16:44
Возраст: 29
Спасибо: 7393 / 2147
Сообщения: 78044
Год выхода: 2018
Жанр: Драма
Режиссер: Кьюба Гудинг-мл.

В ролях: Кьюба Гудинг-мл., Фамке Янссен, Ричард Дрейфусс, Лия Мари Джонсон, Грегг Белло, Кэтрин МакФи, Кен Лернер, Сэм Такур, Джеймс Моусес Блэк, Алекс Ковалёв и другие

О фильме:
Некогда успешный боксер Родни Джонс, после ухода своего тренера и покровителя, устраивается охранником в ночной клуб. Объединившись с фотографом-лесбиянкой Ник, он собирает компромат на богатого застройщика Айзека (Исаака), известного своими ортодоксальными взглядами...



Страна: США, Brittany House Pictures
Продолжительность: 01:51:31
Перевод: Любительский (двухголосый закадровый) | HiWay Grope

Файл
Кодек: XviD
Качество: WEBRip
Видео: 720x304, 25 fps, ~1447 kbps, 0.26 bit/pixel
Аудио rus: AC3, 48 kHz, 6 ch, 384 Kbps

Реклама: присутствует

Семпл

General
Complete name : D:Bayou.Caviar.2018.WEBRip.HiWayGropeBayou.Caviar.2018.WEBRip.HiWayGrope.avi
Format : AVI
Format/Info : Audio Video Interleave
File size : 1.43 GiB
Duration : 1 h 51 min
Overall bit rate : 1 842 kb/s
Writing application : VirtualDubMod 1.5.10.2 (build 2540/release)
Writing library : VirtualDubMod build 2540/release

Video
ID : 0
Format : xvid
Codec ID : xvid
Duration : 1 h 51 min
Bit rate : 1 448 kb/s
Width : 720 pixels
Height : 304 pixels
Display aspect ratio : 2.35:1
Frame rate : 25.000 FPS
Bits/(Pixel*Frame) : 0.265
Stream size : 1.13 GiB (79%)

Audio
ID : 1
Format : AC-3
Format/Info : Audio Coding 3
Codec ID : 2000
Duration : 1 h 51 min
Bit rate mode : Constant
Bit rate : 384 kb/s
Channel(s) : 6 channels
Channel positions : Front: L C R, Side: L R, LFE
Sampling rate : 48.0 kHz
Frame rate : 31.250 FPS (1536 SPF)
Bit depth : 16 bits
Compression mode : Lossy
Stream size : 306 MiB (21%)
Alignment : Split accross interleaves
Interleave, duration : 40 ms (1.00 video frame)
Interleave, preload duration : 500 ms
Service kind : Complete Main



Релиз от: HiWay Grope


_________________
Проголосуй за трекер Открытый торрент трекер - RUS-MEDIA.ORG

Проголосуй Открытый торрент трекер - RUS-MEDIA.ORG


Вернуться к началу
 Профиль Отправить личное сообщение  
 
   Похожие торренты   Автор   Торрент   Размер 
В этой теме нет новых непрочитанных сообщений. Болотная икра / Bayou Caviar [Драма, 2018] WEBRip 720p, Dvo

salma3

0 | 0

3.7 ГБ

В этой теме нет новых непрочитанных сообщений. Икра [01-08 из 08] [Детектив, 2017] WEBRip

salma3

52 | 17

4.35 ГБ

В этой теме нет новых непрочитанных сообщений. Икра [01-08 из 08] [Детектив, 2017] WEB-DLRip [КПК]

salma3

0 | 0

1.83 ГБ

В этой теме нет новых непрочитанных сообщений. Икра [01-08 из 08] [Детектив, 2017] HDTVRip

salma3

384 | 147

5.7 ГБ

В этой теме нет новых непрочитанных сообщений. Икра [01-08 из 08] [Детектив, 2017] HDTV 1080i

salma3

0 | 0

26.6 ГБ

В этой теме нет новых непрочитанных сообщений. 1/1 [Драма, 2018] WEBRip, Dvo

salma3

0 | 0

1.29 ГБ

В этой теме нет новых непрочитанных сообщений. Чи / The Chi [S01] [Драма, 2018] WEBRip, Mvo [Coldfilm]

salma3

0 | 1

6.11 ГБ


Начать новую тему Ответить на тему  [ 1 сообщение ] 




Для Мосгорсуда, Роскомнадзора и рекламодателей:: mosgorsud-torrent[собачка]yandex.ru
cron