Торрент файл
скачать торрент магнет ссылка Добавлен: 18 окт 2018, 20:47
Размер: 1.34 ГБ
Сидеров: 0
Личеров: 0
Статус: (salma3)
Автор

СообщениеДобавлено: 18 окт 2018, 20:47 

Не в сети
Супермодератор
Аватара пользователя
Дата регистрации:
15 фев 2012, 16:44
Возраст: 29
Спасибо: 7401 / 2147
Сообщения: 78470
Год выхода: 2018
Жанр: Триллер, комедия
Режиссер: Клэйтон Джейкобсон

В ролях: Шэйн Джейкобсон, Клэйтон Джейкобсон, Ким Джинджелл, Линетт Каррен, Сара Снук

О фильме:
Холодным утром два брата приезжают в семейный дом, чтобы спланировать убийство отчима. Мотив братьев прост — убить отчима, чтобы мама переписала завещание. Они тщательно инсценируют самоубийство, но они не учитывают разные взгляды на жизнь и свои старые обиды.



Страна: Австралия
Продолжительность: 01:37:49
Перевод: Любительский (двухголосый закадровый) | HiWay Grope

Файл
Кодек: XviD
Качество: WEBRip
Видео: 720x304, 23.976 fps, ~1768 kbps, 0.34 bit/pixel
Аудио rus: AC3, 48 kHz, 2 ch, 192 Kbps

Реклама: присутствует

Семпл

General
Complete name : D:Brother's.Nest.2018.WEBRip.HiWayGropeBrother's.Nest.2018.WEBRip.HiWayGrope.avi
Format : AVI
Format/Info : Audio Video Interleave
Format profile : OpenDML
File size : 1.34 GiB
Duration : 1 h 37 min
Overall bit rate : 1 967 kb/s
Writing application : Lavf57.71.100

Video
ID : 0
Format : MPEG-4 Visual
Format profile : Advanced Simple@L5
Format settings : BVOP1
Format settings, BVOP : 1
Format settings, QPel : No
Format settings, GMC : No warppoints
Format settings, Matrix : Default (H.263)
Codec ID : XVID
Codec ID/Hint : XviD
Duration : 1 h 37 min
Bit rate : 1 763 kb/s
Width : 720 pixels
Height : 304 pixels
Display aspect ratio : 2.40:1
Frame rate : 23.976 (24000/1001) FPS
Color space : YUV
Chroma subsampling : 4:2:0
Bit depth : 8 bits
Scan type : Progressive
Compression mode : Lossy
Bits/(Pixel*Frame) : 0.336
Stream size : 1.20 GiB (90%)
Writing library : XviD 67

Audio
ID : 1
Format : AC-3
Format/Info : Audio Coding 3
Codec ID : 2000
Duration : 1 h 37 min
Bit rate mode : Constant
Bit rate : 192 kb/s
Channel(s) : 2 channels
Channel positions : Front: L R
Sampling rate : 48.0 kHz
Frame rate : 31.250 FPS (1536 SPF)
Bit depth : 16 bits
Compression mode : Lossy
Stream size : 134 MiB (10%)
Alignment : Aligned on interleaves
Interleave, duration : 32 ms (0.77 video frame)
Service kind : Complete Main



Релиз от: HiWay Grope


_________________
Проголосуй за трекер Открытый торрент трекер - RUS-MEDIA.ORG

Проголосуй Открытый торрент трекер - RUS-MEDIA.ORG


Вернуться к началу
 Профиль Отправить личное сообщение  
 
   Похожие торренты   Автор   Торрент   Размер 
В этой теме нет новых непрочитанных сообщений. Братское гнездо / Brothers' Nest [Триллер, комедия, 2018] WEBRip 720p, Dvo

salma3

0 | 0

2.13 ГБ

В этой теме нет новых непрочитанных сообщений. Гнездо шершней / Hornets' Nest [боевик, драма, военный, 1970] BDRip 720p, Dvo [НТВ+]

salma3

13 | 9

7.05 ГБ

В этой теме нет новых непрочитанных сообщений. Aliens Nest [Action, 2018] [Лицензия]

Ilovegames

1 | 0

64.91 МБ

В этой теме нет новых непрочитанных сообщений. Пьяные матросы / Brothers in Arms [Триллер, комедия, 2017] WEBDLRip, Mvo [Официальный звук]

salma3

95 | 42

1.37 ГБ

В этой теме нет новых непрочитанных сообщений. Рози / Rosy [Триллер, мелодрама, комедия, 2018] WEBRip, Dvo

salma3

61 | 5

1.36 ГБ

В этой теме нет новых непрочитанных сообщений. Убивая Еву / Killing Eve [S01] [триллер, комедия, 2018] WEBRip, Mvo [OmskBird]

salma3

34 | 57

4.71 ГБ

В этой теме нет новых непрочитанных сообщений. Убивая Еву / Killing Eve [S01] [триллер, комедия, 2018] WEBRip 720p, Mvo [OmskBird]

salma3

19 | 61

7.52 ГБ


Начать новую тему Ответить на тему  [ 1 сообщение ] 




Для Мосгорсуда, Роскомнадзора и рекламодателей:: mosgorsud-torrent[собачка]yandex.ru
cron