Торрент файл
скачать торрент магнет ссылка Добавлен: 19 окт 2018, 11:08
Размер: 1.05 ГБ
Сидеров: 0
Личеров: 0
Статус: (salma3)
Автор

СообщениеДобавлено: 19 окт 2018, 11:08 

В сети
Супермодератор
Аватара пользователя
Дата регистрации:
15 фев 2012, 16:44
Возраст: 29
Спасибо: 7400 / 2147
Сообщения: 78337
Год выхода: 2018
Жанр: Драма, криминал
Режиссер: Рафаль Соколовски

В ролях: Брайан Дж. Смит, Каньехтио Хорн, Рауль Трухильо, Аарон Эшмор, Джон Капелос, Камилла Стоппс, Роб Арчер, Шон Бенсон, Джек Фултон, Том Эллисон и другие

О фильме:
Один из немногих достойных водителей эвакуаторов в городе рискует всем в отчаянном стремлении стать королем дороги и обеспечить свою семью.



Страна: Канада, Don Carmody Productions
Продолжительность: 01:27:26
Перевод: Любительский (двухголосый закадровый) | HiWay Grope

Файл
Кодек: XviD
Качество: WEBRip
Видео: 720x400, 23.976 fps, ~1331 kbps, 0.19 bit/pixel
Аудио rus: AC3, 48 kHz, 6 ch, 384 Kbps

Реклама: присутствует

Семпл

General
Complete name : D:22.Chaser.2018.WEBRip.HiWayGrope22.Chaser.2018.WEBRip.HiWayGrope.avi
Format : AVI
Format/Info : Audio Video Interleave
File size : 1.05 GiB
Duration : 1 h 27 min
Overall bit rate : 1 725 kb/s
Writing application : VirtualDubMod 1.5.10.2 (build 2540/release)
Writing library : VirtualDubMod build 2540/release

Video
ID : 0
Format : xvid
Codec ID : xvid
Duration : 1 h 27 min
Bit rate : 1 332 kb/s
Width : 720 pixels
Height : 400 pixels
Display aspect ratio : 16:9
Frame rate : 23.976 (24000/1001) FPS
Bits/(Pixel*Frame) : 0.193
Stream size : 833 MiB (77%)

Audio
ID : 1
Format : AC-3
Format/Info : Audio Coding 3
Codec ID : 2000
Duration : 1 h 27 min
Bit rate mode : Constant
Bit rate : 384 kb/s
Channel(s) : 6 channels
Channel positions : Front: L C R, Side: L R, LFE
Sampling rate : 48.0 kHz
Frame rate : 31.250 FPS (1536 SPF)
Bit depth : 16 bits
Compression mode : Lossy
Stream size : 240 MiB (22%)
Alignment : Split accross interleaves
Interleave, duration : 42 ms (1.00 video frame)
Interleave, preload duration : 500 ms
Service kind : Complete Main



Релиз от: HiWay Grope


_________________
Проголосуй за трекер Открытый торрент трекер - RUS-MEDIA.ORG

Проголосуй Открытый торрент трекер - RUS-MEDIA.ORG


Вернуться к началу
 Профиль Отправить личное сообщение  
 
   Похожие торренты   Автор   Торрент   Размер 
В этой теме нет новых непрочитанных сообщений. Тягач 22 / 22 Chaser [Драма, криминал, 2018] WEBRip 720p, Dvo

salma3

0 | 0

2.91 ГБ

В этой теме нет новых непрочитанных сообщений. [RealityKings.com] Marilyn Mansion - Chest Chaser (02.10.2018) [All sex]

salma3

0 | 0

643.68 МБ

В этой теме нет новых непрочитанных сообщений. [BigNaturals.com / RealityKings.com] Marilyn Mansion, Charles Dera / Chest Chaser [2018-10-02, Amateur,Big Tits, Tittyfuck, Brazilian, Blowjob, Brunette, Car, Sex, 1080p, SiteRip]

salma3

0 | 0

3.42 ГБ

В этой теме нет новых непрочитанных сообщений. Лед / Ice [S02] [Драма, криминал, 2018] WEBRip, Mvo [OmskBird]

salma3

0 | 0

7.05 ГБ

В этой теме нет новых непрочитанных сообщений. Лед / Ice [S02] [Драма, криминал, 2018] WEBRip 720p, Mvo [OmskBird]

salma3

0 | 0

11.19 ГБ

В этой теме нет новых непрочитанных сообщений. Клятва / The Oath [S01] [Драма, криминал, 2018] WEBRip, Mvo [BaibaKo]

salma3

0 | 0

5.53 ГБ

В этой теме нет новых непрочитанных сообщений. Клятва / The Oath [S01] [Драма, криминал, 2018] WEBRip, Mvo [Coldfilm]

salma3

170 | 33

4.21 ГБ


Начать новую тему Ответить на тему  [ 1 сообщение ] 




Для Мосгорсуда, Роскомнадзора и рекламодателей:: mosgorsud-torrent[собачка]yandex.ru
cron