Торрент файл
скачать торрент магнет ссылка Добавлен: 19 окт 2018, 16:31
Размер: 1.44 ГБ
Сидеров: 0
Личеров: 0
Статус: (salma3)
Автор

СообщениеДобавлено: 19 окт 2018, 16:31 

Не в сети
Супермодератор
Аватара пользователя
Дата регистрации:
15 фев 2012, 16:44
Возраст: 29
Спасибо: 7401 / 2147
Сообщения: 78470
Год выхода: 2018
Жанр: Ужасы, триллер
Режиссер: Майкл Уинник

В ролях: Бояна Новакович, Джош Стюарт, Делрой Линдо, Мелисса Болона, Ивет Йейтс, Жаклин Флеминг, Бэйли МиКелл Копертуэйт, Люк Эдвардс, Джой Кейт Лосон, Прэсли Ричардсон и др.

О фильме: Молодой преподаватель Адам и его жена Лиза ожидают пополнения в семействе. В один миг идиллия счастливой пары рушится. Они сталкиваются с неведомым злом, которое превращает их жизнь в ад. В надежде избавиться от преследующего их ужаса Адам умоляет о помощи парапсихолога Кларка. Приступив работе, Кларк осознает, что зловещая сущность, с которой они столкнулись, намного опаснее, чем он предполагал. И тогда супругам открывается страшная правда об этом кошмаре.



Страна: США
Продолжительность: 01:27:09
Перевод: Дублированный[iTunes]

Файл
Формат: AVI
Качество: WEB-DLRip
Видео: Xvid 73, 720x304, ~1969 kbps, 25,000 fps
Звук: русский, AC3, 5.1 ch, 48 kHz, 384 kbps | iTunes

General
Полное имя : F:TorrentZlo2018WEB-DLRip.avi
Формат : AVI
Формат/Информация : Audio Video Interleave
Профиль формата : OpenDML
Размер файла : 1.44 GiB
Продолжительность : 1 h 27 min
Общий поток : 2 365 kb/s
Программа кодирования : XviD4PSP 6.0 / 54.27.101

Video
Идентификатор : 0
Формат : MPEG-4 Visual
Профиль формата : Advanced Simple@L5
Настройки формата : BVOP2 / Custom Matrix
Параметр BVOP формата : 2
Параметр QPel формата : No
Параметр GMC формата : No warppoints
Параметр матрицы формата : Custom
Идентификатор кодека : XVID
Идентификатор кодека/Подсказка : XviD
Продолжительность : 1 h 27 min
Битрейт : 1 969 kb/s
Ширина : 720 pixels
Высота : 304 pixels
Соотношение сторон : 2.35:1
Частота кадров : 25.000 FPS
Цветовое пространство : YUV
Субдискретизация насыщенности : 4:2:0
Битовая глубина : 8 bits
Тип развёртки : Progressive
Метод сжатия : Lossy
Бит/(Пиксели*Кадры) : 0.360
Размер потока : 1.20 GiB (83%)
Библиотека кодирования : XviD 73

Audio
Идентификатор : 1
Формат : AC-3
Формат/Информация : Audio Coding 3
Идентификатор кодека : 2000
Продолжительность : 1 h 27 min
Вид битрейта : Constant
Битрейт : 384 kb/s
Каналы : 6 channels
Расположение каналов : Front: L C R, Side: L R, LFE
Частота : 48.0 kHz
Частота кадров : 31.250 FPS (1536 SPF)
Битовая глубина : 16 bits
Метод сжатия : Lossy
Размер потока : 239 MiB (16%)
Выравнивание : Aligned on interleaves
Продолжительность промежутка : 32 ms (0.80 video frame)




_________________
Проголосуй за трекер Открытый торрент трекер - RUS-MEDIA.ORG

Проголосуй Открытый торрент трекер - RUS-MEDIA.ORG


Вернуться к началу
 Профиль Отправить личное сообщение  
 
   Похожие торренты   Автор   Торрент   Размер 
В этой теме нет новых непрочитанных сообщений. Зло / Malicious [Ужасы, триллер, 2018] WEB-DLRip, Dub [iTunes]

salma3

0 | 0

1.46 ГБ

В этой теме нет новых непрочитанных сообщений. Зло / Malicious [Ужасы, триллер, 2018] WEB-DLRip, Dub [iTunes]

salma3

0 | 0

744.64 МБ

В этой теме нет новых непрочитанных сообщений. Зло / Malicious [Ужасы, триллер, 2018] WEB-DL 1080p, Dub [iTunes]

salma3

1826 | 143

3.23 ГБ

В этой теме нет новых непрочитанных сообщений. Истерия / Delirium [Ужасы, триллер, 2018] WEB-DLRip, Dub [iTunes]

salma3

0 | 0

1.46 ГБ

В этой теме нет новых непрочитанных сообщений. Фото на память [Триллер, ужасы, 2018] WEB-DLRip [iTunes]

salma3

400 | 56

1.33 ГБ

В этой теме нет новых непрочитанных сообщений. Инсомния / No dormirás [ужасы, триллер, детектив, 2018] WEB-DLRip, Dub [iTunes]

salma3

18 | 32

745.37 МБ

В этой теме нет новых непрочитанных сообщений. Ремнант: Всё ещё вижу тебя / I Still See You [Ужасы, триллер, 2018] WEB-DLRip-AVC, Dub [iTunes]

salma3

0 | 0

1.88 ГБ


Начать новую тему Ответить на тему  [ 1 сообщение ] 




Для Мосгорсуда, Роскомнадзора и рекламодателей:: mosgorsud-torrent[собачка]yandex.ru
cron