Торрент файл
скачать торрент магнет ссылка Добавлен: 21 окт 2018, 20:21
Размер: 1.33 ГБ
Сидеров: 27
Личеров: 1
Статус: (salma3)
Автор

СообщениеДобавлено: 21 окт 2018, 20:21 

Не в сети
Супермодератор
Аватара пользователя
Дата регистрации:
15 фев 2012, 16:44
Возраст: 29
Спасибо: 7401 / 2147
Сообщения: 78470
Год выхода: 2018
Жанр: Триллер
Режиссер: Асаф Бернштейн

В ролях: Индиа Айсли, Джейсон Айзекс, Пенелопа Митчелл, Мира Сорвино, Харрисон Гилбертсон, Кристен Харрис, Адам Хертиг, Джон С. МакДональд, Коннор Питерсон, Кристина Сеговиа

О фильме:
18-летняя старшеклассница Мария нелюбима родителями и отвергнута сверстниками. Будучи изгоем, она доверяет все свои секреты и переживания своему отражению в зеркале, своему воображаемому злому близнецу, который поддерживает, поощряет и знает все ее тайны. Однажды она меняется местами со своим двойником, который начинает воплощать самые дикие и необузданные желания.



Страна: США, Primary Wave Entertainment,Dana Lustig Productions,Buffalo Gal Pictures
Продолжительность: 01:43:33
Перевод: Любительский (двухголосый закадровый) | HiWay Grope

Файл
Кодек: XviD
Качество: WEBRip
Видео: 720x304, 23.976 fps, ~1638 kbps, 0.31 bit/pixel
Аудио rus: AC3, 48 kHz, 2 ch, 192 Kbps

Реклама: присутствует

Семпл

General
Complete name : D:Look.Away.2018.WEBRip.HiWayGropeLook.Away.2018.WEBRip.HiWayGrope.avi
Format : AVI
Format/Info : Audio Video Interleave
Format profile : OpenDML
File size : 1.33 GiB
Duration : 1 h 43 min
Overall bit rate : 1 837 kb/s
Writing application : Lavf57.71.100

Video
ID : 0
Format : MPEG-4 Visual
Format profile : Advanced Simple@L5
Format settings : BVOP1
Format settings, BVOP : 1
Format settings, QPel : No
Format settings, GMC : No warppoints
Format settings, Matrix : Default (H.263)
Codec ID : XVID
Codec ID/Hint : XviD
Duration : 1 h 43 min
Bit rate : 1 633 kb/s
Width : 720 pixels
Height : 304 pixels
Display aspect ratio : 2.40:1
Frame rate : 23.976 (24000/1001) FPS
Color space : YUV
Chroma subsampling : 4:2:0
Bit depth : 8 bits
Scan type : Progressive
Compression mode : Lossy
Bits/(Pixel*Frame) : 0.311
Stream size : 1.18 GiB (89%)
Writing library : XviD 67

Audio
ID : 1
Format : AC-3
Format/Info : Audio Coding 3
Codec ID : 2000
Duration : 1 h 43 min
Bit rate mode : Constant
Bit rate : 192 kb/s
Channel(s) : 2 channels
Channel positions : Front: L R
Sampling rate : 48.0 kHz
Frame rate : 31.250 FPS (1536 SPF)
Bit depth : 16 bits
Compression mode : Lossy
Stream size : 142 MiB (10%)
Alignment : Aligned on interleaves
Interleave, duration : 32 ms (0.77 video frame)
Service kind : Complete Main



Релиз от: HiWay Grope


_________________
Проголосуй за трекер Открытый торрент трекер - RUS-MEDIA.ORG

Проголосуй Открытый торрент трекер - RUS-MEDIA.ORG


Вернуться к началу
 Профиль Отправить личное сообщение  
 
   Похожие торренты   Автор   Торрент   Размер 
В этой теме нет новых непрочитанных сообщений. Тёмное зеркало / Look Away [Триллер, 2018] WEBRip 720p, Dvo

salma3

0 | 0

2.28 ГБ

В этой теме нет новых непрочитанных сообщений. Тёмное зеркало / Look Away [Триллер, 2018] WEB-DL 1080p, Avo

salma3

157 | 88

3.72 ГБ

В этой теме нет новых непрочитанных сообщений. Зеркало / Looking Glass [триллер, 2018] WEBRip, Dvo

salma3

0 | 0

1.49 ГБ

В этой теме нет новых непрочитанных сообщений. Зеркало / Looking Glass [Триллер, 2018] WEBRip, Mvo

salma3

0 | 0

699.14 МБ

В этой теме нет новых непрочитанных сообщений. Зеркало / Looking Glass [триллер, 2018] WEBRip 720p, Dvo

salma3

0 | 0

3.63 ГБ

В этой теме нет новых непрочитанных сообщений. Зеркало / Looking Glass [Триллер, 2018] WEBRip 720p, Mvo

salma3

0 | 1

3.51 ГБ

В этой теме нет новых непрочитанных сообщений. Черное зеркало / Black Mirror [S01-04] [Фантастика, триллер, драма, 2011-2017] WEBRip 720p, Mvo [LostFilm]

salma3

96 | 231

32.64 ГБ


Начать новую тему Ответить на тему  [ 1 сообщение ] 




Для Мосгорсуда, Роскомнадзора и рекламодателей:: mosgorsud-torrent[собачка]yandex.ru
cron