Торрент файл
скачать торрент магнет ссылка Добавлен: 21 окт 2018, 20:48
Размер: 1.36 ГБ
Сидеров: 40
Личеров: 23
Статус: (salma3)
Автор

СообщениеДобавлено: 21 окт 2018, 20:48 

Не в сети
Супермодератор
Аватара пользователя
Дата регистрации:
15 фев 2012, 16:44
Возраст: 29
Спасибо: 7400 / 2147
Сообщения: 78391
Год выхода: 2018
Жанр: Драма, криминал
Режиссер: Руперт Эверетт

В ролях: Руперт Эверетт, Колин Фёрт, Эмили Уотсон, Колин Морган, Эдвин Томас, Том Уилкинсон, Анна Чэнселлор, Джулиан Уэдэм, Беатрис Даль, Антонио Спанджоло

О фильме:
История последних дней литературного классика Оскара Уайльда, который пытается справиться с больным телом и затухающим разумом с помощью юмора и иронии.



Страна: Великобритания, Бельгия, Италия, Германия
Продолжительность: 01:45:31
Перевод: Любительский (двухголосый закадровый) | HiWay Grope

Файл
Кодек: MPEG-4 AVC/x.264
Качество: WEBRip-AVC
Видео: 720x304, 24.000 fps, ~1700 kbps, 0.324 bit/pixel
Аудио rus: AC3, 48 kHz, 2 ch, 192 Kbps

Реклама: присутствует

Семпл

General
Unique ID : 208886436942081183024010024343292651829 (0x9D26107BC09A1A20B7CE323EC3D0A935)
Complete name : D:The.Happy.Prince.2018.WEBRip.HiWayGropeThe.Happy.Prince.2018.WEBRip-AVC.HiWayGrope.mkv
Format : Matroska
Format version : Version 4 / Version 2
File size : 1.36 GiB
Duration : 1 h 45 min
Overall bit rate : 1 846 kb/s
Encoded date : UTC 2018-10-21 03:29:56
Writing application : mkvmerge v27.0.0 ('Metropolis') 64-bit
Writing library : libebml v1.3.6 + libmatroska v1.4.9

Video
ID : 1
Format : AVC
Format/Info : Advanced Video Codec
Format profile : High@L4.1
Format settings : CABAC / 4 Ref Frames
Format settings, CABAC : Yes
Format settings, RefFrames : 4 frames
Codec ID : V_MPEG4/ISO/AVC
Duration : 1 h 45 min
Bit rate : 1 700 kb/s
Width : 720 pixels
Height : 304 pixels
Display aspect ratio : 2.40:1
Frame rate mode : Constant
Frame rate : 24.000 FPS
Color space : YUV
Chroma subsampling : 4:2:0
Bit depth : 8 bits
Scan type : Progressive
Bits/(Pixel*Frame) : 0.324
Stream size : 1.22 GiB (90%)
Writing library : x264 core 157 r2901M 7d0ff22
Encoding settings : cabac=1 / ref=3 / deblock=1:0:0 / analyse=0x3:0x133 / me=hex / subme=7 / psy=1 / psy_rd=1.00:0.20 / mixed_ref=1 / me_range=16 / chroma_me=1 / trellis=1 / 8x8dct=1 / cqm=0 / deadzone=21,11 / fast_pskip=1 / chroma_qp_offset=-3 / threads=21 / lookahead_threads=2 / sliced_threads=0 / nr=0 / decimate=1 / interlaced=0 / bluray_compat=0 / constrained_intra=0 / bframes=3 / b_pyramid=2 / b_adapt=2 / b_bias=0 / direct=3 / weightb=1 / open_gop=0 / weightp=2 / keyint=240 / keyint_min=24 / scenecut=40 / intra_refresh=0 / rc_lookahead=40 / rc=cbr / mbtree=1 / bitrate=1700 / ratetol=1.0 / qcomp=0.60 / qpmin=0 / qpmax=69 / qpstep=4 / vbv_maxrate=1700 / vbv_bufsize=25000 / nal_hrd=none / filler=0 / ip_ratio=1.40 / aq=1:1.00
Language : English
Default : Yes
Forced : No
Color range : Limited
Color primaries : BT.601 NTSC
Transfer characteristics : BT.601
Matrix coefficients : BT.601

Audio
ID : 2
Format : AC-3
Format/Info : Audio Coding 3
Codec ID : A_AC3
Duration : 1 h 45 min
Bit rate mode : Constant
Bit rate : 192 kb/s
Channel(s) : 2 channels
Channel positions : Front: L R
Sampling rate : 48.0 kHz
Frame rate : 31.250 FPS (1536 SPF)
Bit depth : 16 bits
Compression mode : Lossy
Stream size : 145 MiB (10%)
Language : Russian
Service kind : Complete Main
Default : Yes
Forced : No



Релиз от: HiWay Grope


_________________
Проголосуй за трекер Открытый торрент трекер - RUS-MEDIA.ORG

Проголосуй Открытый торрент трекер - RUS-MEDIA.ORG


Вернуться к началу
 Профиль Отправить личное сообщение  
 
   Похожие торренты   Автор   Торрент   Размер 
В этой теме нет новых непрочитанных сообщений. Принц города / Prince of the City [драма, криминал, 1981] WEB-DLRip-AVC, Avo

salma3

56 | 18

2.9 ГБ

В этой теме нет новых непрочитанных сообщений. Принц города / Prince of the City [криминал, драма, 1981] WEB-DL 1080p, Dvo

salma3

0 | 0

17.47 ГБ

В этой теме нет новых непрочитанных сообщений. Принц Египта / The Prince of Egypt [мультфильм, приключения, семейный, история, 1998] WEBRip 1080p, 2Dub+Mvo+2Dvo+2Avo

salma3

57 | 6

7.4 ГБ

В этой теме нет новых непрочитанных сообщений. Счастливый конец / The Happy Ending [Драма, 1969] HDTVRip 720p, Dvo

salma3

0 | 0

2.79 ГБ

В этой теме нет новых непрочитанных сообщений. Хэппи / Happy! [01x01 из 07] [Боевик, драма, криминал, фэнтези, 2017] WEBRip 1080p, Mvo [Lostfilm]

salma3

0 | 1

3.02 ГБ

В этой теме нет новых непрочитанных сообщений. Чёрный принц / The Black Prince (Кави Раз / Kavi Raz)

Alfredovich

10 | 5

1.37 ГБ

В этой теме нет новых непрочитанных сообщений. Принц на Рождество / A Christmas Prince [мелодрама, 2017] WEBDLRip, Mvo

salma3

105 | 11

1.37 ГБ


Начать новую тему Ответить на тему  [ 1 сообщение ] 




Для Мосгорсуда, Роскомнадзора и рекламодателей:: mosgorsud-torrent[собачка]yandex.ru
cron