Торрент файл
скачать торрент магнет ссылка Добавлен: 22 окт 2018, 11:15
Размер: 1.36 ГБ
Сидеров: 0
Личеров: 0
Статус: (salma3)
Автор

СообщениеДобавлено: 22 окт 2018, 11:15 

Не в сети
Супермодератор
Аватара пользователя
Дата регистрации:
15 фев 2012, 16:44
Возраст: 29
Спасибо: 7401 / 2147
Сообщения: 78470
Год выхода: 2018
Жанр: Триллер
Режиссер: Скотт Спир

В ролях: Белла Торн, Дермот Малруни, Ричард Хэрмон, Луис Хертэм, Сара Томпсон, Шон Бенсон, Хью Диллон, Эми Прайс-Фрэнсис, Арден Альфонсо, Алисса Выспяньский

О фильме:
Загадочная аномалия стирает границы между миром живых и мёртвых. Бесплотные призраки погибших людей внезапно вторгаются в дома и жизни своих близких и столь же неожиданно исчезают. Ремнанты. Никто не знает откуда они взялись и зачем пришли. Вероника решает сделать шаг в потусторонний мир для того, чтобы разгадать эту тайну. Но путь ей преграждает таинственный убийца из прошлого...



Страна: США, Gold Circle Films
Продолжительность: 01:38:40
Перевод: Любительский (двухголосый закадровый) | HiWay Grope

Файл
Кодек: XviD
Качество: WEBRip
Видео: 720x304 (2.37:1), 23.976 fps, XviD build 67 ~1572 kbps avg, 0.30 bit/pixel
Аудио rus: AC3, 48 kHz, 6 ch, 384 Kbps

Реклама: присутствует

Семпл

General
Complete name : D:I.Still.See.You.2018.WEBRip.HiWayGropeI.Still.See.You.2018.WEBRip.HiWayGrope.avi
Format : AVI
Format/Info : Audio Video Interleave
File size : 1.36 GiB
Duration : 1 h 38 min
Overall bit rate : 1 966 kb/s
Writing application : VirtualDubMod 1.5.10.3 (build 2550/release)
Writing library : VirtualDubMod build 2550/release

Video
ID : 0
Format : MPEG-4 Visual
Format profile : Simple@L5
Format settings : BVOP1
Format settings, BVOP : 1
Format settings, QPel : No
Format settings, GMC : No warppoints
Format settings, Matrix : Default (MPEG)
Codec ID : XVID
Codec ID/Hint : XviD
Duration : 1 h 38 min
Bit rate : 1 573 kb/s
Width : 720 pixels
Height : 304 pixels
Display aspect ratio : 2.40:1
Frame rate : 23.976 (24000/1001) FPS
Color space : YUV
Chroma subsampling : 4:2:0
Bit depth : 8 bits
Scan type : Progressive
Compression mode : Lossy
Bits/(Pixel*Frame) : 0.300
Stream size : 1.08 GiB (80%)
Writing library : XviD 67

Audio
ID : 1
Format : AC-3
Format/Info : Audio Coding 3
Codec ID : 2000
Duration : 1 h 38 min
Bit rate mode : Constant
Bit rate : 384 kb/s
Channel(s) : 6 channels
Channel positions : Front: L C R, Side: L R, LFE
Sampling rate : 48.0 kHz
Frame rate : 31.250 FPS (1536 SPF)
Bit depth : 16 bits
Compression mode : Lossy
Stream size : 271 MiB (20%)
Alignment : Split accross interleaves
Interleave, duration : 42 ms (1.00 video frame)
Interleave, preload duration : 500 ms
Service kind : Complete Main



Релиз от: HiWay Grope


_________________
Проголосуй за трекер Открытый торрент трекер - RUS-MEDIA.ORG

Проголосуй Открытый торрент трекер - RUS-MEDIA.ORG


Вернуться к началу
 Профиль Отправить личное сообщение  
 
   Похожие торренты   Автор   Торрент   Размер 
В этой теме нет новых непрочитанных сообщений. Ремнант: Всё ещё вижу тебя / I Still See You [Ужасы, триллер, 2018] WEB-DLRip-AVC, Mvo

salma3

0 | 0

1.62 ГБ

В этой теме нет новых непрочитанных сообщений. Ремнант: Всё ещё вижу тебя / I Still See You [Ужасы, триллер, 2018] WEB-DL 1080p, Mvo

salma3

0 | 0

3.53 ГБ

В этой теме нет новых непрочитанных сообщений. Ремнант: Всё ещё вижу тебя / I Still See You [Ужасы, триллер, 2018] WEB-DLRip-AVC, Mvo

salma3

0 | 0

746.42 МБ

В этой теме нет новых непрочитанных сообщений. Ремнант: Всё ещё вижу тебя / I Still See You [Триллер, 2018] WEB-DLRip, Dub [iTunes]

salma3

0 | 0

1.46 ГБ

В этой теме нет новых непрочитанных сообщений. Ремнант: Всё ещё вижу тебя / I Still See You [Ужасы, триллер, 2018] WEB-DLRip-AVC, Dub [iTunes]

salma3

0 | 0

1.88 ГБ

В этой теме нет новых непрочитанных сообщений. Ремнант: Всё ещё вижу тебя / I Still See You [Триллер, детектив, мелодрама, 2018] WEB-DL 1080p, Dub [iTunes]

salma3

0 | 0

3.39 ГБ

В этой теме нет новых непрочитанных сообщений. Тау / Tau [Фантастика, триллер, 2018] WEBRip, Mvo

salma3

0 | 0

1.3 ГБ


Начать новую тему Ответить на тему  [ 1 сообщение ] 




Для Мосгорсуда, Роскомнадзора и рекламодателей:: mosgorsud-torrent[собачка]yandex.ru
cron