Торрент файл
скачать торрент магнет ссылка Добавлен: 25 авг 2015, 16:37
Размер: 4.37 ГБ
Сидеров: 545
Личеров: 51
Автор

СообщениеДобавлено: 25 авг 2015, 16:37 

Не в сети
Зам. Админа
Аватара пользователя
Дата регистрации:
02 дек 2010, 12:39
Спасибо: 12656 / 214
Сообщения: 27984
Год выпуска: 2015
Производство: США / Summit Entertainment, Red Wagon Productions, NeoReel, Mandeville Films
Жанр: Фантастика, триллер, приключения

Режиссер: Роберт Швентке
Продюсеры: Люси Фишер, Пуйа Шахбазян, Дуглас Уик
Актеры: Шэйлин Вудли, Тео Джеймс, Кейт Уинслет, Джай Кортни, Энсел Элгорт, Майлз Теллер, Зои Кравиц, Мекхай Файфер, Наоми Уоттс, Октавия Спенсер

Описание :
В новой главе антиутопии об обществе, где все расставлено по полочкам, а любая индивидуальность подлежит искоренению, Трис должна найти способ борьбы со страшной системой, уничтожающей ее близких. Кто из них на очереди? Она узнает все больше страшных подробностей, стоящих за кажущимся порядком, и уже не может не видеть, что в ее мире пора что-то менять. Но главное в этой борьбе — справиться с расколом, который враг порождает в ее собственной душе.

Перевод: Дублированный
Субтитры: Английские, русские

Дата мировой премьеры: 11 марта 2015
Дата российской премьеры: 19 марта 2015, «Централ Партнершип»

Продолжительность: 01:58:51
Качество видео: DVD5
Видео: MPEG-2, 720x480@853x480 (NTSC 16:9), ~4400 Кбит/сек
Аудио 1: AC3 5.1, 448 Кбит/сек [Английский - оригинал]
Аудио 2: AC3 5.1, 448 Кбит/сек [Русский - дублированный]

Title: Insurgent (2015) DVD5 NTSC
Size: 4.37 Gb ( 4 579 972,00 KBytes ) - DVD-5
Enabled regions: 1, 2, 3, 4, 5, 6, 7, 8

VTS_01 :
Play Length: 01:58:51
Video: NTSC 16:9 (720x480) VBR, Auto Letterboxed
Audio:
English (Dolby AC3, 6 ch)
Not specified (Dolby AC3, 2 ch)
Subtitles:
English
English
Russian

* Menus Information *

VIDEO_TS Menu
Video:
NTSC 4:3 (720x480) VBR
Auto Pan&Scan, Auto Letterboxed
English Language Unit :
Title Menu

VTS_01 Menu
Video:
NTSC 16:9 (720x480) VBR
Auto Pan&Scan
Audio:
Not specified (Dolby AC3, 2 ch)
English Language Unit :
Root Menu
Общее
Полное имя : G:ВидеоInsurgent (2015) DVD5 NTSCVIDEO_TSVTS_01_1.VOB
Формат : MPEG-PS
Размер файла : 1024 Мбайт
Продолжительность : 26 м.
Режим общего битрейта : Переменный
Общий поток : 5434 Кбит/сек

Видео
Идентификатор : 224 (0xE0)
Формат : MPEG Video
Версия формата : Version 2
Профиль формата : Main@Main
Параметр BVOP формата : Да
Параметр матрицы формата : Выборочная
Параметр GOP формата : Variable
Продолжительность : 26 м.
Вид битрейта : Переменный
Битрейт : 4430 Кбит/сек
Максимальный битрейт : 8718 Кбит/сек
Ширина : 720 пикселей
Высота : 480 пикселей
Соотношение сторон : 16:9
Частота кадров : 23,976 кадра/сек
Стандарт вещания : NTSC
Цветовое пространство : YUV
Субдискретизация насыщенности : 4:2:0
Битовая глубина : 8 бит
Тип развёртки : Прогрессивная
Порядок развёртки : 2:3 Pulldown
Метод сжатия : С потерями
Бит/(Пиксели*Кадры) : 0.535
Временной код первого кадра : 00:00:00:00
Оригинал временного кода : Group of pictures header
GOP, открыто/закрыто : Открыто
GOP, открыто/закрыто на первом кадре : Закрыто
Размер потока : 835 Мбайт (82%)

Аудио #1
Идентификатор : 189 (0xBD)-128 (0x80)
Формат : AC-3
Формат/Информация : Audio Coding 3
Расширение режима : CM (complete main)
Параметр Endianness формата : Big
Режим смешивания : DVD-Video
Продолжительность : 26 м.
Вид битрейта : Постоянный
Битрейт : 448 Кбит/сек
Каналы : 6 каналов
Расположение каналов : Front: L C R, Side: L R, LFE
Частота : 48,0 КГц
Битовая глубина : 16 бит
Метод сжатия : С потерями
Размер потока : 84,4 Мбайт (8%)

Аудио #2
Идентификатор : 189 (0xBD)-130 (0x82)
Формат : AC-3
Формат/Информация : Audio Coding 3
Расширение режима : CM (complete main)
Параметр Endianness формата : Big
Режим смешивания : DVD-Video
Продолжительность : 26 м.
Вид битрейта : Постоянный
Битрейт : 448 Кбит/сек
Каналы : 6 каналов
Расположение каналов : Front: L C R, Side: L R, LFE
Частота : 48,0 КГц
Битовая глубина : 16 бит
Метод сжатия : С потерями
Размер потока : 84,4 Мбайт (8%)

Текст #1
Идентификатор : 189 (0xBD)-32 (0x20)
Формат : RLE
Формат/Информация : Run-length encoding
Режим смешивания : DVD-Video
Задержка видео : 967 мс.

Текст #2
Идентификатор : 189 (0xBD)-33 (0x21)
Формат : RLE
Формат/Информация : Run-length encoding
Режим смешивания : DVD-Video
Задержка видео : 934 мс.

Текст #3
Идентификатор : 189 (0xBD)-34 (0x22)
Формат : RLE
Формат/Информация : Run-length encoding
Режим смешивания : DVD-Video
Задержка видео : 667 мс.

Меню

Исходник: Дивергент, глава 2: Инсургент / Insurgent (2015) DVD9 | Custom
Удалены: доп. материалы, английские звуковые дорожки AC3 2.0 (в меню кнопки закрыты).
Команды диска переписаны заново, оставлен один VTS.
Видео сжато на 23,2%.
Меню: статичное, недействующие кнопки затерты и закрыты.
Использовались программы: DVD ReMake Pro + DVD Rebuilder + CCE SP2 [7 проходов] + Работа с меню (Adobe PhotoShop и MuxMan).




Вернуться к началу
 Профиль  
 
   Похожие торренты   Автор   Торрент   Размер 
В этой теме нет новых непрочитанных сообщений. Марсианин / The Martian [Фантастика, приключения, 2015] DVD5, Dub+Sub [Лицензия]

Dracon

278 | 42

4.37 ГБ

В этой теме нет новых непрочитанных сообщений. Фантастическая четверка / Fantastic Four (Джошуа Транк) [фантастика, боевик, приключения, 2015] DVD5, Dub+Sub [Лицензия]

Dracon

147 | 16

4.38 ГБ

В этой теме нет новых непрочитанных сообщений. Обитель зла: Последняя глава / Resident Evil: The Final Chapter [Ужасы, фантастика, боевик, триллер, 2016] BDRip, Dub+Sub [Лицензия]

salma3

319 | 75

2.18 ГБ

В этой теме нет новых непрочитанных сообщений. Обитель зла: Последняя глава / Resident Evil: The Final Chapter [ужасы, фантастика, боевик, триллер, 2016] BDRip 1080p, Dub+Sub [Лицензия]

salma3

1136 | 442

8.41 ГБ

В этой теме нет новых непрочитанных сообщений. Обитель зла: Последняя глава / Resident Evil: The Final Chapter [Ужасы, фантастика, боевик, триллер, 2016] Blu-Ray 1080p, Dub [3D-Video] [Лицензия]

salma3

56 | 70

34.67 ГБ

В этой теме нет новых непрочитанных сообщений. Обитель зла: Последняя глава / Resident Evil: The Final Chapter [ужасы, фантастика, боевик, триллер, 2016] BDRip 720p, Dub+Sub [Лицензия]

salma3

715 | 201

3.93 ГБ

В этой теме нет новых непрочитанных сообщений. Бегущий в лабиринте: Испытание огнём / Maze Runner: The Scorch Trials (Уэс Болл) [фантастика, боевик, триллер, 2015] DVD5, Dub+Sub [Лицензия]

Dracon

346 | 71

4.36 ГБ


Начать новую тему Ответить на тему  [ 1 сообщение ] 




Для Мосгорсуда, Роскомнадзора и рекламодателей:: mosgorsud-torrent[собачка]yandex.ru
cron