Торрент файл
скачать торрент магнет ссылка Добавлен: 14 фев 2017, 14:33
Размер: 4.38 ГБ
Сидеров: 63
Личеров: 32
Статус: (salma3)
Автор

СообщениеДобавлено: 14 фев 2017, 14:33 

Не в сети
Супермодератор
Аватара пользователя
Дата регистрации:
15 фев 2012, 16:44
Возраст: 29
Спасибо: 7434 / 2147
Сообщения: 80216
Год выпуска: 2016
Жанр: Триллер, драма, детектив
Режиссер: Тейт Тейлор

Актеры: Эмили Блант, Хейли Беннетт, Ребекка Фергюсон, Джастин Теру, Люк Эванс, Эдгар Рамирес, Лора Припон, Эллисон Дженни, Даррен Голдштейн, Лиза Кудроу

Описание:
Каждый день поезд проносит Рэйчел мимо очаровательного коттеджа, где живет идеальная на первый взгляд пара. Но однажды идиллия разрушится — прекрасная незнакомка бесследно исчезнет. Рэйчел окажется втянута в весьма запутанную историю, ведь только она видела из окна то, что было скрыто ото всех.



Производство: США
Продолжительность: 01:52:00
Перевод: Дублированный
Субтитры: Английские, русские


Качество видео: DVD5
Видео: MPEG-2, 720x480@853x480 (NTSC 16:9), ~4700 Кбит/сек
Аудио 1: AC3 5.1, 448 Кбит/сек [Английский - оригинал]
Аудио 2: AC3 5.1, 448 Кбит/сек [Русский - дублированный]

Title: The Girl on the Train (2016) DVD5 NTSC
Size: 4.38 Gb ( 4 587 982,00 KBytes ) - DVD-5
Enabled regions: 1, 2, 3, 4, 5, 6, 7, 8

VTS_01 :
Play Length: 01:52:00
Video: NTSC 16:9 (720x480) VBR, Auto Letterboxed
Audio:
English (Dolby AC3, 6 ch)
Russian (Dolby AC3, 6 ch)
Subtitles:
English
Russian
Russian

* Menus Information *

VIDEO_TS Menu
Video:
NTSC 16:9 (720x480) VBR
Auto Pan&Scan
English Language Unit :
Title Menu

VTS_01 Menu
Video:
NTSC 16:9 (720x480) VBR
Auto Letterboxed
Audio:
Not specified (Dolby AC3, 2 ch)
English Language Unit :
Root Menu
Subpicture Menu
Angle menu
Chapter (PTT) Menu
Общее
Полное имя : G:ВидеоThe Girl on the Train (2016) DVD5 NTSCVIDEO_TSVTS_01_1.VOB
Формат : MPEG-PS
Размер файла : 1024 Мбайт
Продолжительность : 24 м.
Режим общего битрейта : Переменный
Общий поток : 5736 Кбит/сек

Видео
Идентификатор : 224 (0xE0)
Формат : MPEG Video
Версия формата : Version 2
Профиль формата : Main@Main
Параметр BVOP формата : Да
Параметр матрицы формата : Выборочная
Параметр GOP формата : Variable
Продолжительность : 24 м.
Вид битрейта : Переменный
Битрейт : 4725 Кбит/сек
Максимальный битрейт : 7748 Кбит/сек
Ширина : 720 пикселей
Высота : 480 пикселей
Соотношение сторон : 16:9
Частота кадров : 23,976 (24000/1001) кадра/сек
Цветовое пространство : YUV
Субдискретизация насыщенности : 4:2:0
Битовая глубина : 8 бит
Тип развёртки : Прогрессивная
Порядок развёртки : 2:3 Pulldown
Метод сжатия : С потерями
Бит/(Пиксели*Кадры) : 0.570
Временной код первого кадра : 00:00:00:00
Оригинал временного кода : Group of pictures header
GOP, открыто/закрыто : Открыто
GOP, открыто/закрыто на первом кадре : Закрыто
Размер потока : 844 Мбайт (82%)

Аудио #1
Идентификатор : 189 (0xBD)-128 (0x80)
Формат : AC-3
Формат/Информация : Audio Coding 3
Расширение режима : CM (complete main)
Параметр Endianness формата : Big
Режим смешивания : DVD-Video
Продолжительность : 24 м.
Вид битрейта : Постоянный
Битрейт : 448 Кбит/сек
Каналы : 6 каналов
Расположение каналов : Front: L C R, Side: L R, LFE
Частота : 48,0 КГц
Частота кадров : 31,250 кадров/сек (1536 spf)
Метод сжатия : С потерями
Размер потока : 80,0 Мбайт (8%)

Аудио #2
Идентификатор : 189 (0xBD)-129 (0x81)
Формат : AC-3
Формат/Информация : Audio Coding 3
Расширение режима : CM (complete main)
Параметр Endianness формата : Big
Режим смешивания : DVD-Video
Продолжительность : 24 м.
Вид битрейта : Постоянный
Битрейт : 448 Кбит/сек
Каналы : 6 каналов
Расположение каналов : Front: L C R, Side: L R, LFE
Частота : 48,0 КГц
Частота кадров : 31,250 кадров/сек (1536 spf)
Метод сжатия : С потерями
Размер потока : 80,0 Мбайт (8%)

Меню

Исходник: Девушка в поезде / The Girl on the Train (2016) DVD9 | Custom
Удалены: доп. материалы, звуковые дорожки с комментариями и с описанием (в меню кнопки затёрты).
Команды диска переписаны заново, оставлен один VTS.
Видео сжато на 26,3%
Меню: статичное, недействующие кнопки затерты и закрыты.
Обработка и сжатие: DVD ReMake Pro + DVD Rebuilder + CCE SP2 [7 проходов] + Работа с меню (Adobe PhotoShop и MuxMan).


_________________
Проголосуй за трекер Открытый торрент трекер - RUS-MEDIA.ORG

Проголосуй Открытый торрент трекер - RUS-MEDIA.ORG


Вернуться к началу
 Профиль Отправить личное сообщение  
 
   Похожие торренты   Автор   Торрент   Размер 
В этой теме нет новых непрочитанных сообщений. Девушка в поезде / The Girl on the Train [триллер, драма, детектив, 2016] BDRip-AVC, Dub [Лицензия]

salma3

137 | 28

744.92 МБ

В этой теме нет новых непрочитанных сообщений. Девушка в поезде / The Girl on the Train [триллер, драма, детектив, 2016] BDRip, Dub+Sub [Лицензия]

salma3

873 | 298

1.46 ГБ

В этой теме нет новых непрочитанных сообщений. Девушка в поезде / The Girl on the Train [триллер, драма, детектив, 2016] BDRip, Dub [КПК] [Лицензия]

salma3

40 | 10

720.45 МБ

В этой теме нет новых непрочитанных сообщений. Девушка в поезде / The Girl on the Train [триллер, драма, детектив, 2016] BDRip, Dub+Sub [Лицензия]

salma3

270 | 96

745.16 МБ

В этой теме нет новых непрочитанных сообщений. Девушка в поезде / The Girl on the Train [триллер, драма, детектив, 2016] BDRip-AVC, Dub+Sub [лицензия]

marya111

100 | 40

2.87 ГБ

В этой теме нет новых непрочитанных сообщений. Девушка в поезде / The Girl on the Train [триллер, драма, детектив, 2016] BDRip-AVC, Dub+Sub [лицензия]

marya111

161 | 65

2.16 ГБ

В этой теме нет новых непрочитанных сообщений. Девушка в поезде / The Girl on the Train [триллер, драма, детектив, 2016] WEB-DLRip-AVC, Dub [iTunes]

salma3

2024 | 556

1.4 ГБ


Начать новую тему Ответить на тему  [ 1 сообщение ] 




Для Мосгорсуда, Роскомнадзора и рекламодателей:: mosgorsud-torrent[собачка]yandex.ru
cron