Торрент файл
скачать торрент магнет ссылка Добавлен: 04 апр 2017, 11:27
Размер: 4.37 ГБ
Сидеров: 80
Личеров: 39
Статус: (salma3)
Автор

СообщениеДобавлено: 04 апр 2017, 11:27 

Не в сети
Супермодератор
Аватара пользователя
Дата регистрации:
15 фев 2012, 16:44
Возраст: 29
Спасибо: 7401 / 2147
Сообщения: 78470
Год выпуска: 2016
Жанр: Фантастика, драма, мелодрама
Режиссер: Мортен Тильдум

Актеры: Дженнифер Лоуренс, Крис Пратт, Майкл Шин, Лоренс Фишбёрн, Энди Гарсиа, Винс Фостер, Кара Мишель Уайлдер, Конор Брофи, Джули Серда, Аврора Перрино

Описание:
Космический корабль с 5 000 пассажирами на борту, погруженных на время полета в искусственный сон, держит курс на планету, которая станет для них новым домом. Всё идет по плану, но из-за сбоя системы двое пассажиров неожиданно просыпаются и понимают, что до конечного пункта путешествия 90 лет пути, и им суждено остаток жизни провести вдвоем в роскошных интерьерах корабля, оснащенного по последнему слову техники. Постепенно Джима и Аврору начинает непреодолимо тянуть друг к другу, но корабль попадает в беду, и теперь в их руках — жизнь и судьба всех обитателей корабля.



Производство: США
Перевод: Дублированный
Продолжительность: 01:56:04
Субтитры: Английские, русские

Качество видео: DVD5
Видео: MPEG-2, 720x480@853x480 (NTSC 16:9), ~4400 Кбит/сек
Аудио 1: AC3 5.1, 448 Кбит/сек [Английский - оригинал]
Аудио 2: AC3 5.1, 448 Кбит/сек [Русский - дублированный]



Title: Passengers (2016) DVD5 NTSC
Size: 4.37 Gb ( 4 587 378,00 KBytes ) - DVD-5
Enabled regions: 1, 2, 3, 4, 5, 6, 7, 8
VTS_01 :
Play Length: 01:56:04
Video: NTSC 16:9 (720x480) VBR, Auto Letterboxed
Audio:
English (Dolby AC3, 6 ch)
Russian (Dolby AC3, 6 ch)
Subtitles:
English
English
Russian
Russian
* Menus Information *
VIDEO_TS Menu
Video:
NTSC 16:9 (720x480) VBR
Auto Pan&Scan
English Language Unit :
Title Menu
VTS_01 Menu
Video:
NTSC 16:9 (720x480) VBR
Auto Pan&Scan
Audio:
Not specified (Dolby AC3, 6 ch)
English Language Unit :
Root Menu
Chapter (PTT) Menu
Общее
Полное имя : G:ВидеоPassengers (2016) DVD5 NTSCVIDEO_TSVTS_01_3.VOB
Формат : MPEG-PS
Размер файла : 1024 Мбайт
Продолжительность : 26 м.
Режим общего битрейта : Переменный
Общий поток : 5426 Кбит/сек
Видео
Идентификатор : 224 (0xE0)
Формат : MPEG Video
Версия формата : Version 2
Профиль формата : Main@Main
Параметр BVOP формата : Да
Параметр матрицы формата : Выборочная
Параметр GOP формата : M=3, N=12
Продолжительность : 26 м.
Вид битрейта : Переменный
Битрейт : 4422 Кбит/сек
Максимальный битрейт : 7677 Кбит/сек
Ширина : 720 пикселей
Высота : 480 пикселей
Соотношение сторон : 16:9
Частота кадров : 23,976 (24000/1001) кадра/сек
Цветовое пространство : YUV
Субдискретизация насыщенности : 4:2:0
Битовая глубина : 8 бит
Тип развёртки : Прогрессивная
Порядок развёртки : 2:3 Pulldown
Метод сжатия : С потерями
Бит/(Пиксели*Кадры) : 0.534
Временной код первого кадра : 00:55:06:10
Оригинал временного кода : Group of pictures header
GOP, открыто/закрыто : Открыто
Размер потока : 834 Мбайт (81%)
Аудио #1
Идентификатор : 189 (0xBD)-128 (0x80)
Формат : AC-3
Формат/Информация : Audio Coding 3
Расширение режима : CM (complete main)
Параметр Endianness формата : Big
Режим смешивания : DVD-Video
Продолжительность : 26 м.
Вид битрейта : Постоянный
Битрейт : 448 Кбит/сек
Каналы : 6 каналов
Расположение каналов : Front: L C R, Side: L R, LFE
Частота : 48,0 КГц
Частота кадров : 31,250 кадров/сек (1536 spf)
Метод сжатия : С потерями
Задержка видео : -347 мс.
Размер потока : 84,6 Мбайт (8%)
Аудио #2
Идентификатор : 189 (0xBD)-130 (0x82)
Формат : AC-3
Формат/Информация : Audio Coding 3
Расширение режима : CM (complete main)
Параметр Endianness формата : Big
Режим смешивания : DVD-Video
Продолжительность : 26 м.
Вид битрейта : Постоянный
Битрейт : 448 Кбит/сек
Каналы : 6 каналов
Расположение каналов : Front: L C R, Side: L R, LFE
Частота : 48,0 КГц
Частота кадров : 31,250 кадров/сек (1536 spf)
Метод сжатия : С потерями
Задержка видео : -347 мс.
Размер потока : 84,6 Мбайт (8%)
Текст #1
Идентификатор : 189 (0xBD)-32 (0x20)
Формат : RLE
Формат/Информация : Run-length encoding
Режим смешивания : DVD-Video
Текст #2
Идентификатор : 189 (0xBD)-33 (0x21)
Формат : RLE
Формат/Информация : Run-length encoding
Режим смешивания : DVD-Video
Меню
Исходник: Пассажиры / Passengers (2016) DVD9 | Custom
Удалены: доп. материалы, описательная дорога (в меню кнопки затёрты).
Команды диска переписаны заново, оставлен один VTS.
Видео сжато на 14,4%
Меню: статичное, недействующие кнопки затерты и закрыты.
Обработка и сжатие: DVD ReMake Pro + DVD Rebuilder + CCE SP2 [7 прохода] + Работа с меню (Adobe PhotoShop и MuxMan).


_________________
Проголосуй за трекер Открытый торрент трекер - RUS-MEDIA.ORG

Проголосуй Открытый торрент трекер - RUS-MEDIA.ORG


Вернуться к началу
 Профиль Отправить личное сообщение  
 
   Похожие торренты   Автор   Торрент   Размер 
В этой теме нет новых непрочитанных сообщений. Пассажиры / Passengers [Фантастика, драма, мелодрама, 2016] UHD Blu-Ray 2160p, Dub [4K] [Лицензия]

salma3

1 | 27

55.6 ГБ

В этой теме нет новых непрочитанных сообщений. Пассажиры / Passengers [фантастика, драма, мелодрама, 2016] HDRip, Dub [iTunes]

salma3

412 | 200

2.05 ГБ

В этой теме нет новых непрочитанных сообщений. Пассажиры / Passengers [фантастика, драма, мелодрама, 2016] BDRip, Dub+Sub [Лицензия]

salma3

4792 | 688

1.46 ГБ

В этой теме нет новых непрочитанных сообщений. Пассажиры / Passengers [Фантастика, драма, мелодрама, 2016] DVD9, Dub [Custom]

salma3

59 | 18

6.66 ГБ

В этой теме нет новых непрочитанных сообщений. Пассажиры / Passengers [фантастика, драма, мелодрама, 2016] BDRip 2160p, Dub

salma3

23 | 17

35.24 ГБ

В этой теме нет новых непрочитанных сообщений. Пассажиры / Passengers [фантастика, драма, мелодрама, 2016] WEB-DLRip-AVC, Dub [iTunes]

salma3

1125 | 182

2.09 ГБ

В этой теме нет новых непрочитанных сообщений. Пассажиры / Passengers [фантастика, драма, мелодрама, 2016] BDRip-AVC, Dub [Лицензия]

salma3

445 | 51

1.46 ГБ


Начать новую тему Ответить на тему  [ 1 сообщение ] 




Для Мосгорсуда, Роскомнадзора и рекламодателей:: mosgorsud-torrent[собачка]yandex.ru
cron