Торрент файл
скачать торрент магнет ссылка Добавлен: 08 май 2018, 11:47
Размер: 6.71 ГБ
Сидеров: 0
Личеров: 0
Статус: (salma3)
Автор

СообщениеДобавлено: 08 май 2018, 11:48 

Не в сети
Супермодератор
Аватара пользователя
Дата регистрации:
15 фев 2012, 16:44
Возраст: 29
Спасибо: 7434 / 2147
Сообщения: 80293
Год выхода: 2015
Жанр: фантастика, боевик, триллер
Режиссер: Алан Тейлор

В ролях: Арнольд Шварценеггер, Джейсон Кларк, Эмилия Кларк, Джай Кортни, Дж.К. Симмонс, Дайо Окенийи, Мэтт Смит, Кортни Б. Вэнс, Ли Бён Хон, Майкл Глэдис

О фильме:
Когда Джон Коннор, лидер сопротивления, посылает сержанта Кайла Риза назад в 1984 год, чтобы защитить Сару Коннор и спасти будущее, неожиданный поворот событий создает разлом во времени. Сержант Риз оказывается в новой, незнакомой версии прошлого, где он встречает неожиданных союзников, в том числе Терминатора, новых опасных врагов, и новую миссию: изменить будущее…



Страна: США
Продолжительность: 120 мин. / 02:00
Перевод: полное дублирование

Файл
Кодек: MPEG2
Качество: DVD9 R5
Видео: PAL 16:9 (720x576@1024x576) VBR 5971 Kbps, 25.000 fps
Аудио: Dolby AC3, 6 ch, 48.0 KHz, 448 Кbps (русский, украинский, английский)
Субтитры: русские, украинские, английские

Общее
Полное имя : Terminator Genisys (2015) DVD9 R5VIDEO_TSVTS_05_5.VOB
Формат : MPEG-PS
Размер файла : 1024 Мбайт
Продолжительность : 19 м. 10 с.
Режим общего битрейта : Переменный
Общий поток : 7464 Кбит/сек
Видео
Идентификатор : 224 (0xE0)
Формат : MPEG Video
Версия формата : Version 2
Профиль формата : Main@Main
Настройки формата : CustomMatrix / BVOP
Параметр BVOP формата : Да
Параметр матрицы формата : Выборочная
Параметр GOP формата : Variable
Продолжительность : 19 м. 10 с.
Вид битрейта : Переменный
Битрейт : 5971 Кбит/сек
Максимальный битрейт : 9800 Кбит/сек
Ширина : 720 пикселей
Высота : 576 пикселей
Соотношение сторон : 16:9
Частота кадров : 25,000 кадров/сек
Стандарт вещания : Component
Цветовое пространство : YUV
Субдискретизация насыщенности : 4:2:0
Битовая глубина : 8 бит
Тип развёртки : Прогрессивная
Порядок развёртки : Верхнее поле первое
Метод сжатия : С потерями
Бит/(Пиксели*Кадры) : 0.576
Временной код первого кадра : 02:21:08:04
Оригинал временного кода : Group of pictures header
Размер потока : 819 Мбайт (80%)
Основные цвета : BT.601 PAL
Характеристики трансфера : BT.470 System B, BT.470 System G
Коэффициенты матрицы : BT.470 System B, BT.470 System G
Аудио #1
Идентификатор : 189 (0xBD)-128 (0x80)
Формат : AC-3
Формат/Информация : Audio Coding 3
Параметр Endianness формата : Big
Режим смешивания : DVD-Video
Продолжительность : 19 м. 10 с.
Вид битрейта : Постоянный
Битрейт : 448 Кбит/сек
Каналы : 6 каналов
Расположение каналов : Front: L C R, Side: L R, LFE
Частота : 48,0 КГц
Частота кадров : 31,250 кадров/сек (1536 SPF)
Битовая глубина : 16 бит
Метод сжатия : С потерями
Задержка видео : -736 мс.
Размер потока : 61,5 Мбайт (6%)
Аудио #2
Идентификатор : 189 (0xBD)-129 (0x81)
Формат : AC-3
Формат/Информация : Audio Coding 3
Параметр Endianness формата : Big
Режим смешивания : DVD-Video
Продолжительность : 19 м. 10 с.
Вид битрейта : Постоянный
Битрейт : 448 Кбит/сек
Каналы : 6 каналов
Расположение каналов : Front: L C R, Side: L R, LFE
Частота : 48,0 КГц
Частота кадров : 31,250 кадров/сек (1536 SPF)
Битовая глубина : 16 бит
Метод сжатия : С потерями
Задержка видео : -768 мс.
Размер потока : 61,5 Мбайт (6%)
Аудио #3
Идентификатор : 189 (0xBD)-130 (0x82)
Формат : AC-3
Формат/Информация : Audio Coding 3
Параметр Endianness формата : Big
Режим смешивания : DVD-Video
Продолжительность : 19 м. 10 с.
Вид битрейта : Постоянный
Битрейт : 448 Кбит/сек
Каналы : 6 каналов
Расположение каналов : Front: L C R, Side: L R, LFE
Частота : 48,0 КГц
Частота кадров : 31,250 кадров/сек (1536 SPF)
Битовая глубина : 16 бит
Метод сжатия : С потерями
Задержка видео : -768 мс.
Размер потока : 61,5 Мбайт (6%)
Текст #1
Идентификатор : 189 (0xBD)-32 (0x20)
Формат : RLE
Формат/Информация : Run-length encoding
Режим смешивания : DVD-Video
Задержка видео : 2 с. 600 мс.
Текст #2
Идентификатор : 189 (0xBD)-33 (0x21)
Формат : RLE
Формат/Информация : Run-length encoding
Режим смешивания : DVD-Video
Задержка видео : 2 с. 600 мс.
Текст #3
Идентификатор : 189 (0xBD)-34 (0x22)
Формат : RLE
Формат/Информация : Run-length encoding
Режим смешивания : DVD-Video
Задержка видео : 2 с. 880 мс.
Текст #4
Идентификатор : 189 (0xBD)-35 (0x23)
Формат : RLE
Формат/Информация : Run-length encoding
Режим смешивания : DVD-Video
Задержка видео : 2 с. 880 мс.
Текст #5
Идентификатор : 189 (0xBD)-36 (0x24)
Формат : RLE
Формат/Информация : Run-length encoding
Режим смешивания : DVD-Video
Задержка видео : 2 с. 600 мс.
Текст #6
Идентификатор : 189 (0xBD)-37 (0x25)
Формат : RLE
Формат/Информация : Run-length encoding
Режим смешивания : DVD-Video
Задержка видео : 2 с. 600 мс.
Меню


_________________
Проголосуй за трекер Открытый торрент трекер - RUS-MEDIA.ORG

Проголосуй Открытый торрент трекер - RUS-MEDIA.ORG


Вернуться к началу
 Профиль Отправить личное сообщение  
 
   Похожие торренты   Автор   Торрент   Размер 
В этой теме нет новых непрочитанных сообщений. Терминатор: Генезис / Terminator Genisys [Фантастика, боевик, триллер, 2015] UHD BDRemux 2160p, Dub [4K] [Лицензия]

salma3

23 | 31

55.11 ГБ

В этой теме нет новых непрочитанных сообщений. Терминатор 2: Судный день / Terminator 2: Judgment Day [Фантастика, боевик, триллер, 1991] HDRip, Avo [Режиссерская версия]

salma3

56 | 82

2.19 ГБ

В этой теме нет новых непрочитанных сообщений. Терминатор 2: Судный день / Terminator 2: Judgment Day [Фантастика, боевик, триллер, 1991] BDRemux 1080p, Avo [Theatrical Cut] [Remastered]

salma3

14 | 4

25.75 ГБ

В этой теме нет новых непрочитанных сообщений. Терминатор: Да придёт спаситель / Terminator Salvation [фантастика, боевик, триллер, 2009] WEB-DLRip-AVC, Dub [Theatrical Cut] [Open Matte]

salma3

16 | 3

2.18 ГБ

В этой теме нет новых непрочитанных сообщений. Терминатор 3: Восстание машин / Terminator 3: Rise of the Machines [фантастика, боевик, триллер, 2003] BDRip-HEVC 1080p, Dub

salma3

53 | 28

4.28 ГБ

В этой теме нет новых непрочитанных сообщений. Терминатор 2: Судный день / Terminator 2: Judgment Day [Фантастика, боевик, триллер, 1991] BDRemux 1080p, Avo [Theatrical Cut] [Remastered]

salma3

0 | 0

24.23 ГБ

В этой теме нет новых непрочитанных сообщений. Терминатор 2: Судный день / Terminator 2: Judgment Day [Фантастика, боевик, триллер, 1991] BDRemux 2160p, Dub [4K] [Театральная версия]

salma3

29 | 20

53.24 ГБ


Начать новую тему Ответить на тему  [ 1 сообщение ] 




Для Мосгорсуда, Роскомнадзора и рекламодателей:: mosgorsud-torrent[собачка]yandex.ru
cron