Торрент файл
скачать торрент магнет ссылка Добавлен: 11 июл 2018, 12:01
Размер: 4.36 ГБ
Сидеров: 0
Личеров: 0
Статус: (salma3)
Автор

СообщениеДобавлено: 11 июл 2018, 12:01 

Не в сети
Супермодератор
Аватара пользователя
Дата регистрации:
15 фев 2012, 16:44
Возраст: 29
Спасибо: 7401 / 2147
Сообщения: 78490
Год выпуска: 2018
Производство: США / Marvel Studios Inc., Walt Disney Pictures
Жанр: Фантастика, боевик, приключения

Режиссер: Райан Куглер
Продюсеры: Виктория Алонсо, Джеффри Чернов, Луис Д’Эспозито
Актеры: Чедвик Боузман, Майкл Б. Джордан, Лупита Нионго, Данай Джекесай Гурира, Мартин Фриман, Энди Серкис, Дэниэл Калуя, Летишиа Райт, Уинстон Дьюк, Стерлинг К. Браун, Анджела Бассетт

Описание:
С первого взгляда можно решить, что Ваканда — обычная территория дикой Африки, но это не так. Здесь, в недрах пустынных земель, скрываются залежи уникального металла, способного поглощать вибрацию. Многие пытались добраться до него, разоряя всё на своём пути и принося смерть аборигенам, но каждый раз таинственный дух саванны — Чёрная Пантера — вставал на защиту угнетённых.

Спустя много лет беда снова приходит в Ваканду, и в этот раз враг заручился поддержкой современных технологий. Когда шансов почти не остаётся, Т`Чалла, молодой принц Ваканды, узнаёт, что именно ему предстоит возродить легенду и продолжить вечную борьбу, надев маску Чёрной Пантеры.

Перевод: Дублированный
Субтитры: Русские, английские

Дата мировой премьеры: 29 января 2018
Дата российской премьеры: 26 февраля 2018, «WDSSPR»


Продолжительность: 02:09:02
Качество видео: DVD5 [BD -> DVD]

Видео: MPEG-2, 720x576@1024x576 (PAL 16:9), ~3700 Кбит/сек
Аудио 1: AC3 5.1, 448 Кбит/сек [Русский - дублированный]
Аудио 2: AC3 5.1, 448 Кбит/сек [Английский - оригинал]

Title: Black Panther (2018) DVD5 [BD-DVD]
Size: 4.36 Gb ( 4 576 608,00 KBytes ) - DVD-5
Enabled regions: 1, 2, 3, 4, 5, 6, 7, 8

VTS_01 :
Play Length: 02:09:02
Video: PAL 16:9 (720x576) VBR, Auto Letterboxed
Audio:
Russian, AC3, 3/2 (L,C,R,SL,SR)+LFE ch, 448 kbps, Delay 0 mSec
English, AC3, 3/2 (L,C,R,SL,SR)+LFE ch, 448 kbps, Delay 0 mSec
Subtitles:
Russian
English
Russian
Видео
Идентификатор : 224 (0xE0)
Формат : MPEG Video
Версия формата : Version 2
Профиль формата : Main@Main
Настройки формата : CustomMatrix / BVOP
Параметр BVOP формата : Да
Параметр матрицы формата : Выборочная
Параметр GOP формата : M=3, N=15
Продолжительность : 29 м. 23 с.
Вид битрейта : Переменный
Битрейт : 3878 Кбит/сек
Максимальный битрейт : 8900 Кбит/сек
Ширина : 720 пикселей
Высота : 576 пикселей
Соотношение сторон : 16:9
Частота кадров : 25,000 кадров/сек
Стандарт вещания : PAL
Цветовое пространство : YUV
Субдискретизация насыщенности : 4:2:0
Битовая глубина : 8 бит
Тип развёртки : Прогрессивная
Метод сжатия : С потерями
Бит/(Пиксели*Кадры) : 0.374
Временной код первого кадра : 00:00:00:00
Оригинал временного кода : Group of pictures header
GOP, открыто/закрыто : Открыто
GOP, открыто/закрыто на первом кадре : Закрыто
Размер потока : 815 Мбайт (80%)

Аудио #1
Идентификатор : 189 (0xBD)-128 (0x80)
Формат : AC-3
Формат/Информация : Audio Coding 3
Параметр Endianness формата : Big
Режим смешивания : DVD-Video
Продолжительность : 29 м. 23 с.
Вид битрейта : Постоянный
Битрейт : 448 Кбит/сек
Каналы : 6 каналов
Расположение каналов : Front: L C R, Side: L R, LFE
Частота : 48,0 КГц
Частота кадров : 31,250 кадров/сек (1536 SPF)
Битовая глубина : 16 бит
Метод сжатия : С потерями
Размер потока : 94,2 Мбайт (9%)
ServiceKind : Complete Main

Аудио #2
Идентификатор : 189 (0xBD)-129 (0x81)
Формат : AC-3
Формат/Информация : Audio Coding 3
Параметр Endianness формата : Big
Режим смешивания : DVD-Video
Продолжительность : 29 м. 23 с.
Вид битрейта : Постоянный
Битрейт : 448 Кбит/сек
Каналы : 6 каналов
Расположение каналов : Front: L C R, Side: L R, LFE
Частота : 48,0 КГц
Частота кадров : 31,250 кадров/сек (1536 SPF)
Битовая глубина : 16 бит
Метод сжатия : С потерями
Размер потока : 94,2 Мбайт (9%)
ServiceKind : Complete Main

Текст #1
Идентификатор : 189 (0xBD)-32 (0x20)
Формат : RLE
Формат/Информация : Run-length encoding
Режим смешивания : DVD-Video
Задержка видео : 5 с. 160 мс.

Текст #2
Идентификатор : 189 (0xBD)-33 (0x21)
Формат : RLE
Формат/Информация : Run-length encoding
Режим смешивания : DVD-Video
Задержка видео : 5 с. 160 мс.

Меню

Источником видео, звуковых дорог и глав послужил Blu-Ray. Субтитры взял с BDRip. Основу для меню взял с DVD переделав под данный релиз только меню выбора звуковых дорог и субтитров. Видео обрабатывалось с помощью CarbonCoder в VBR в два прохода. Звуковые дорожки обрабатывались в Sony Vegas. Меню обрабатывал с помощью Adobe Photoshop, Adobe Encore и DvdReMakePro.


_________________
Проголосуй за трекер Открытый торрент трекер - RUS-MEDIA.ORG

Проголосуй Открытый торрент трекер - RUS-MEDIA.ORG


Вернуться к началу
 Профиль Отправить личное сообщение  
 
   Похожие торренты   Автор   Торрент   Размер 
В этой теме нет новых непрочитанных сообщений. Чёрная Пантера / Black Panther [фантастика, боевик, приключения, 2018] HDRip, Mvo

salma3

2070 | 257

2.18 ГБ

В этой теме нет новых непрочитанных сообщений. Чёрная Пантера / Black Panther [Фантастика, боевик, приключения, 2018] BDRip, Dub [Лицензия]

salma3

106 | 23

2.18 ГБ

В этой теме нет новых непрочитанных сообщений. Чёрная Пантера / Black Panther [фантастика, боевик, приключения, 2018] BDRip-AVC, Dub [iTunes]

salma3

266 | 99

2.78 ГБ

В этой теме нет новых непрочитанных сообщений. Чёрная Пантера / Black Panther [Фантастика, боевик, приключения, 2018] BDRip, Dub [Лицензия]

salma3

0 | 0

1.46 ГБ

В этой теме нет новых непрочитанных сообщений. Чёрная Пантера / Black Panther [фантастика, боевик, приключения, 2018] BDRip, Dub [iTunes]

salma3

12724 | 2982

1.46 ГБ

В этой теме нет новых непрочитанных сообщений. Чёрная Пантера / Black Panther [фантастика, боевик, приключения, 2018] BDRip-AVC, Dub [iTunes]

salma3

3 | 366

3.03 ГБ

В этой теме нет новых непрочитанных сообщений. Чёрная Пантера / Black Panther [фантастика, боевик, приключения, 2018] BDRip, Dub [iTunes]

salma3

1304 | 544

2.12 ГБ


Начать новую тему Ответить на тему  [ 1 сообщение ] 




Для Мосгорсуда, Роскомнадзора и рекламодателей:: mosgorsud-torrent[собачка]yandex.ru
cron