Торрент файл
скачать торрент магнет ссылка Добавлен: 19 окт 2017, 20:55
Размер: 16.28 ГБ
Сидеров: 36
Личеров: 6
Статус: (salma3)
Автор

СообщениеДобавлено: 19 окт 2017, 20:55 

Не в сети
Супермодератор
Аватара пользователя
Дата регистрации:
15 фев 2012, 16:44
Возраст: 29
Спасибо: 7428 / 2147
Сообщения: 80047
Год выхода: 2017
Жанр: Фантастика, боевик, триллер
Режиссер: Майкл Бэй

В ролях: Марк Уолберг, Энтони Хопкинс, Джош Дюамель, Лора Хэддок, Сантьяго Кабрера, Изабела Монер, Джеррод Кармайкл, Стэнли Туччи, Лиам Гэрриган, Мартин МакКриди

О фильме:
Оптимус Прайм исчез. Люди ведут войну с Трансформерами. Ключ к нашему будущему погребен в тайнах прошлого, в скрытой истории Трансформеров на Земле… Миссия по спасению мира ложится на плечи разношерстной компании, состоящей из Кейда Йегера, Бамблби, английского лорда и профессора из Оксфорда. Пришла пора действовать! Жертвы станут героями. Герои станут злодеями. Выстоит только один мир: их или наш.



Страна: США
Продолжительность: 02:34:37
Перевод: Дублированный | Лицензия

Файл
Качество: BDRip 1080p
Видео: MPEG-4 AVC, 1920x1080, 13.8 Mbit/s, 23.976 fps
Звук:
Аудио #01: 48 kHz, AC3, 5.1, 640 Kbps | Дублированный | RUS |
Аудио #02: 48 kHz, AC3, 5.1, 640 Kbps | Оригинал | ENG |
Субтитры: Русские (forced, full), английские

Формат 3D: Anamorph SideBySide - Горизонтальная анаморфная стереопара.
Порядок ракурсов: левый ракурс первый

General
Unique ID : 228426825690551701488544182550885413981 (0xABD96807DB2E3C3F8F2D08DA603DB45D)
Complete name : F:VideoSSDTransformers.The.Last.Knight.2017.Lic.3D.HSBS.BDRip.1080p.ExKinoRay.mkv
Format : Matroska
Format version : Version 4 / Version 2
File size : 16.3 GiB
Duration : 2 h 34 min
Overall bit rate : 15.1 Mb/s
Encoded date : UTC 2017-10-19 14:27:57
Writing application : mkvmerge v16.0.0 ('Protest') 64-bit
Writing library : libebml v1.3.5 + libmatroska v1.4.8

Video
ID : 1
Format : AVC
Format/Info : Advanced Video Codec
Format profile : High@L4.1
Format settings : CABAC / 4 Ref Frames
Format settings, CABAC : Yes
Format settings, RefFrames : 4 frames
Codec ID : V_MPEG4/ISO/AVC
Duration : 2 h 34 min
Bit rate : 13.8 Mb/s
Width : 1 920 pixels
Height : 1 080 pixels
Display aspect ratio : 16:9
Frame rate mode : Constant
Frame rate : 23.976 (24000/1001) FPS
Color space : YUV
Chroma subsampling : 4:2:0
Bit depth : 8 bits
Scan type : Progressive
Bits/(Pixel*Frame) : 0.278
Stream size : 14.9 GiB (91%)
Writing library : x264 core 148 r2705 3f5ed56
Encoding settings : cabac=1 / ref=4 / deblock=1:-2:-2 / analyse=0x3:0x133 / me=umh / subme=10 / psy=1 / psy_rd=1.05:0.05 / mixed_ref=1 / me_range=32 / chroma_me=1 / trellis=2 / 8x8dct=1 / cqm=0 / deadzone=21,11 / fast_pskip=0 / chroma_qp_offset=-3 / threads=12 / lookahead_threads=2 / sliced_threads=0 / nr=0 / decimate=0 / interlaced=0 / bluray_compat=0 / constrained_intra=0 / bframes=8 / b_pyramid=2 / b_adapt=2 / b_bias=0 / direct=3 / weightb=1 / open_gop=0 / weightp=2 / keyint=240 / keyint_min=23 / scenecut=40 / intra_refresh=0 / rc_lookahead=50 / rc=2pass / mbtree=0 / bitrate=13800 / ratetol=1.0 / qcomp=0.60 / qpmin=0 / qpmax=69 / qpstep=4 / cplxblur=20.0 / qblur=0.5 / vbv_maxrate=50000 / vbv_bufsize=62500 / nal_hrd=none / filler=0 / ip_ratio=1.40 / pb_ratio=1.30 / aq=3:0.80
Language : English
Default : Yes
Forced : No

Audio #1
ID : 2
Format : AC-3
Format/Info : Audio Coding 3
Format settings, Endianness : Big
Codec ID : A_AC3
Duration : 2 h 34 min
Bit rate mode : Constant
Bit rate : 640 kb/s
Channel(s) : 6 channels
Channel positions : Front: L C R, Side: L R, LFE
Sampling rate : 48.0 kHz
Frame rate : 31.250 FPS (1536 SPF)
Bit depth : 16 bits
Compression mode : Lossy
Stream size : 708 MiB (4%)
Title : Dub [License]
Language : Russian
Service kind : Complete Main
Default : Yes
Forced : No

Audio #2
ID : 3
Format : AC-3
Format/Info : Audio Coding 3
Format settings, Endianness : Big
Codec ID : A_AC3
Duration : 2 h 34 min
Bit rate mode : Constant
Bit rate : 640 kb/s
Channel(s) : 6 channels
Channel positions : Front: L C R, Side: L R, LFE
Sampling rate : 48.0 kHz
Frame rate : 31.250 FPS (1536 SPF)
Bit depth : 16 bits
Compression mode : Lossy
Stream size : 708 MiB (4%)
Title : Original
Language : English
Service kind : Complete Main
Default : No
Forced : No

Text #1
ID : 4
Format : UTF-8
Codec ID : S_TEXT/UTF8
Codec ID/Info : UTF-8 Plain Text
Duration : 2 h 33 min
Bit rate : 0 b/s
Count of elements : 28
Stream size : 1.02 KiB (0%)
Title : Forced
Language : Russian
Default : Yes
Forced : No

Text #2
ID : 5
Format : UTF-8
Codec ID : S_TEXT/UTF8
Codec ID/Info : UTF-8 Plain Text
Duration : 2 h 33 min
Bit rate : 96 b/s
Count of elements : 2315
Stream size : 109 KiB (0%)
Title : Full
Language : Russian
Default : No
Forced : No

Text #3
ID : 6
Format : UTF-8
Codec ID : S_TEXT/UTF8
Codec ID/Info : UTF-8 Plain Text
Duration : 2 h 25 min
Bit rate : 73 b/s
Count of elements : 2617
Stream size : 78.3 KiB (0%)
Title : SDH
Language : English
Default : No
Forced : No

Menu
00:00:00.000 : en:(01)00:00:00:000
00:06:35.269 : en:(02)00:06:35:269
00:14:02.633 : en:(03)00:14:02:633
00:21:44.928 : en:(04)00:21:44:928
00:27:52.420 : en:(05)00:27:52:420
00:33:53.072 : en:(06)00:33:53:072
00:40:08.072 : en:(07)00:40:08:072
00:46:58.106 : en:(08)00:46:58:106
00:53:24.951 : en:(09)00:53:24:951
01:02:02.093 : en:(10)01:02:02:093
01:08:46.247 : en:(11)01:08:46:247
01:14:36.388 : en:(12)01:14:36:388
01:20:09.346 : en:(13)01:20:09:346
01:29:12.555 : en:(14)01:29:12:555
01:37:58.664 : en:(15)01:37:58:664
01:44:56.748 : en:(16)01:44:56:748
01:51:14.668 : en:(17)01:51:14:668
01:57:58.613 : en:(18)01:57:58:613
02:06:08.894 : en:(19)02:06:08:894
02:10:53.262 : en:(20)02:10:53:262
02:16:00.318 : en:(21)02:16:00:318
02:21:41.784 : en:(22)02:21:41:784
02:25:16.457 : en:(23)02:25:16:457
02:34:37.685 : en:(24)02:34:37:685


Релиз от: Автор релиза:


_________________
Проголосуй за трекер Открытый торрент трекер - RUS-MEDIA.ORG

Проголосуй Открытый торрент трекер - RUS-MEDIA.ORG


Вернуться к началу
 Профиль Отправить личное сообщение  
 
   Похожие торренты   Автор   Торрент   Размер 
В этой теме нет новых непрочитанных сообщений. Трансформеры: Последний рыцарь / Transformers: The Last Knight [Фантастика, боевик, триллер, 2017] BDRemux 1080p, Dub [3D-Video] [Лицензия] [IMAX Edition]

salma3

8 | 4

39.9 ГБ

В этой теме нет новых непрочитанных сообщений. Трансформеры: Последний рыцарь / Transformers: The Last Knight [Фантастика, боевик, триллер, 2017] BDRip-HEVC 2160p, Dub [IMAX edition]

salma3

15 | 14

21.93 ГБ

В этой теме нет новых непрочитанных сообщений. Трансформеры: Последний рыцарь / Transformers: The Last Knight [фантастика, боевик, приключения, 2017] DVD9, Dub [Лицензия] [IMAX]

salma3

0 | 0

7.4 ГБ

В этой теме нет новых непрочитанных сообщений. Трансформеры: Последний рыцарь / Transformers: The Last Knight [Фантастика, Боевик, Триллер, Приключения, 2017] BDRip 1080p, Dub [3D-Video] [iTunes]

salma3

217 | 257

19.13 ГБ

В этой теме нет новых непрочитанных сообщений. Трансформеры: Последний рыцарь / Transformers: The Last Knight [фантастика, боевик, триллер, 2017] BDRip 1080p, Dub+Sub [Лицензия]

salma3

136 | 22

17.59 ГБ

В этой теме нет новых непрочитанных сообщений. Трансформеры: Последний рыцарь / Transformers: The Last Knight [фантастика, боевик, триллер, 2017] BDRip, Dub [Лицензия]

salma3

612 | 112

2.91 ГБ

В этой теме нет новых непрочитанных сообщений. Трансформеры: Последний рыцарь / Transformers: The Last Knight [фантастика, боевик, триллер, 2017] BDRip 720p, Dub+Sub [Лицензия]

salma3

300 | 26

8.41 ГБ


Начать новую тему Ответить на тему  [ 1 сообщение ] 




Для Мосгорсуда, Роскомнадзора и рекламодателей:: mosgorsud-torrent[собачка]yandex.ru
cron