Торрент файл
скачать торрент магнет ссылка Добавлен: 13 ноя 2018, 12:38
Размер: 8.67 ГБ
Сидеров: 0
Личеров: 0
Статус: (salma3)
Автор

СообщениеДобавлено: 13 ноя 2018, 12:38 

Не в сети
Супермодератор
Аватара пользователя
Дата регистрации:
15 фев 2012, 16:44
Возраст: 29
Спасибо: 7434 / 2147
Сообщения: 80293
Год выхода: 2001
Страна: США
Жанр: Фэнтези, комедия, приключения
Продолжительность: 01:32:38

Перевод: Профессиональный (дублированный), профессиональный (многоголосый закадровый), профессиональный (двухголосый закадровый), авторский (одноголосый закадровый) x4
Субтитры: Русские, английские

Режиссер: Пит Доктер, Дэвид Силверман, Ли Анкрич

Роли озвучивали: Джон Гудмен, Билли Кристал, Мэри Гиббс, Стив Бушеми, Джеймс Коберн, Дженнифер Тилли, Боб Петерсон, Джон Ратценбергер, Фрэнк Оз, Дэн Джерсон, Стив Сусскинд, Бонни Хант, Джефф Пиджон, Сэмюэл Лорд Блэк, Джек Энджел, Боб Берген, Роджер Бампасс, Джино Конфорти, Дженнифер Дарлинг, Патти Дьютч, Пит Доктер

Описание: Склизский гад в сливном бачке, мохнатый зверь, похожий на чудовище из «Аленького цветочка», гигантские мокрицы под кроватью — все они существуют на самом деле. Все, что им нужно — пугать детей, потому что из детских криков они получают электричество.



Файл
Качество: BDRip 1080p
Формат: MKV
Формат 3D: Half OverUnder / Вертикальная анаморфная стереопара
Порядок ракурсов: Левый ракурс первый
Видео кодек: x264
Аудио кодек: AC3
Видео: MPEG4 Video (H264), 1920x1080, 23.976fps, 10.3 Mbps
Аудио #01: Русский: Dolby AC3, 48000Hz, 6ch, 448 kbps - Дубляж
Аудио #02: Русский: Dolby AC3, 48000Hz, 6ch, 384 kbps - Многоголосый, Киномания.
Аудио #03: Русский: Dolby AC3, 48000Hz, 6ch, 384 kbps - Двухголосый, П. Гланц и И. Королева
Аудио #04: Русский: Dolby AC3, 48000Hz, 6ch, 384 kbps - Одноголосый. А. Гаврилов
Аудио #05: Русский: Dolby AC3, 48000Hz, 6ch, 384 kbps - Одноголосый. С. Визгунов
Аудио #06: Русский: Dolby AC3, 48000Hz, 6ch, 384 kbps - Одноголосый. П. Гланц
Аудио #07: Русский: Dolby AC3, 48000Hz, 6ch, 384 kbps - Одноголосый. И. Александров
Аудио #08: Английский: Dolby AC3, 48000Hz, 6ch, 384 kbps
Формат субтитров: softsub (SRT)

Сэмпл


General
Unique ID : 217918213879808510478276165820936974732 (0xA3F185777229B386B691D475E785718C)
Complete name : D:Torrent22001.Monsters.Inc.likko.mkv
Format : Matroska
Format version : Version 4
File size : 8.67 GiB
Duration : 1 h 32 min
Overall bit rate : 13.4 Mb/s
Movie name : 2001 Корпорация монстров 3D/likko
Encoded date : UTC 2018-11-12 22:33:34
Writing application : mkvmerge v8.3.0 ('Over the Horizon') 64bit
Writing library : libebml v1.3.1 + libmatroska v1.4.2
Cover : Yes
Attachments : cover.png

Video
ID : 1
Format : AVC
Format/Info : Advanced Video Codec
Format profile : High@L4.1
Format settings : CABAC / 4 Ref Frames
Format settings, CABAC : Yes
Format settings, ReFrames : 4 frames
Codec ID : V_MPEG4/ISO/AVC
Duration : 1 h 32 min
Bit rate : 10.3 Mb/s
Width : 1 920 pixels
Height : 1 080 pixels
Display aspect ratio : 16:9
Frame rate mode : Constant
Frame rate : 23.976 (24000/1001) FPS
Color space : YUV
Chroma subsampling : 4:2:0
Bit depth : 8 bits
Scan type : Progressive
Bits/(Pixel*Frame) : 0.206
Stream size : 6.64 GiB (77%)
Title : 2001 Корпорация монстров 3D
Writing library : x264 core 157 r2935 545de2f
Encoding settings : cabac=1 / ref=4 / deblock=1:-1:-1 / analyse=0x3:0x113 / me=umh / subme=11 / psy=1 / psy_rd=1.00:0.15 / mixed_ref=1 / me_range=32 / chroma_me=1 / trellis=2 / 8x8dct=1 / cqm=0 / deadzone=21,11 / fast_pskip=1 / chroma_qp_offset=-3 / threads=18 / lookahead_threads=2 / sliced_threads=0 / nr=0 / decimate=0 / interlaced=0 / bluray_compat=0 / constrained_intra=0 / bframes=10 / b_pyramid=2 / b_adapt=2 / b_bias=0 / direct=3 / weightb=1 / open_gop=0 / weightp=2 / keyint=250 / keyint_min=23 / scenecut=40 / intra_refresh=0 / rc_lookahead=60 / rc=crf / mbtree=0 / crf=17.0 / qcomp=0.70 / qpmin=0 / qpmax=69 / qpstep=4 / vbv_maxrate=40000 / vbv_bufsize=30000 / crf_max=0.0 / nal_hrd=none / filler=0 / frame-packing=4 / ip_ratio=1.40 / pb_ratio=1.30 / aq=1:0.70
Language : English
Default : Yes
Forced : No
Color range : Limited
Matrix coefficients : BT.709

Audio #1
ID : 2
Format : AC-3
Format/Info : Audio Coding 3
Commercial name : Dolby Digital
Codec ID : A_AC3
Duration : 1 h 32 min
Bit rate mode : Constant
Bit rate : 448 kb/s
Channel(s) : 6 channels
Channel layout : L R C LFE Ls Rs
Sampling rate : 48.0 kHz
Frame rate : 31.250 FPS (1536 SPF)
Bit depth : 16 bits
Compression mode : Lossy
Stream size : 297 MiB (3%)
Title : Дубляж
Language : Russian
Service kind : Complete Main
Default : Yes
Forced : No

Audio #2
ID : 3
Format : AC-3
Format/Info : Audio Coding 3
Commercial name : Dolby Digital
Codec ID : A_AC3
Duration : 1 h 32 min
Bit rate mode : Constant
Bit rate : 384 kb/s
Channel(s) : 6 channels
Channel layout : L R C LFE Ls Rs
Sampling rate : 48.0 kHz
Frame rate : 31.250 FPS (1536 SPF)
Bit depth : 16 bits
Compression mode : Lossy
Stream size : 254 MiB (3%)
Title : Многоголосый, Киномания
Language : Russian
Service kind : Complete Main
Default : No
Forced : No

Audio #3
ID : 4
Format : AC-3
Format/Info : Audio Coding 3
Commercial name : Dolby Digital
Codec ID : A_AC3
Duration : 1 h 32 min
Bit rate mode : Constant
Bit rate : 384 kb/s
Channel(s) : 6 channels
Channel layout : L R C LFE Ls Rs
Sampling rate : 48.0 kHz
Frame rate : 31.250 FPS (1536 SPF)
Bit depth : 16 bits
Compression mode : Lossy
Stream size : 254 MiB (3%)
Title : Двухголосый, П. Гланц и И. Королева
Language : Russian
Service kind : Complete Main
Default : No
Forced : No

Audio #4
ID : 5
Format : AC-3
Format/Info : Audio Coding 3
Commercial name : Dolby Digital
Codec ID : A_AC3
Duration : 1 h 32 min
Bit rate mode : Constant
Bit rate : 384 kb/s
Channel(s) : 6 channels
Channel layout : L R C LFE Ls Rs
Sampling rate : 48.0 kHz
Frame rate : 31.250 FPS (1536 SPF)
Bit depth : 16 bits
Compression mode : Lossy
Stream size : 254 MiB (3%)
Title : Одноголосый. А. Гаврилов
Language : Russian
Service kind : Complete Main
Default : No
Forced : No

Audio #5
ID : 6
Format : AC-3
Format/Info : Audio Coding 3
Commercial name : Dolby Digital
Codec ID : A_AC3
Duration : 1 h 32 min
Bit rate mode : Constant
Bit rate : 384 kb/s
Channel(s) : 6 channels
Channel layout : L R C LFE Ls Rs
Sampling rate : 48.0 kHz
Frame rate : 31.250 FPS (1536 SPF)
Bit depth : 16 bits
Compression mode : Lossy
Stream size : 254 MiB (3%)
Title : Одноголосый. С. Визгунов
Language : Russian
Service kind : Complete Main
Default : No
Forced : No

Audio #6
ID : 7
Format : AC-3
Format/Info : Audio Coding 3
Commercial name : Dolby Digital
Codec ID : A_AC3
Duration : 1 h 32 min
Bit rate mode : Constant
Bit rate : 384 kb/s
Channel(s) : 6 channels
Channel layout : L R C LFE Ls Rs
Sampling rate : 48.0 kHz
Frame rate : 31.250 FPS (1536 SPF)
Bit depth : 16 bits
Compression mode : Lossy
Stream size : 254 MiB (3%)
Title : Одноголосый. П. Гланц
Language : Russian
Service kind : Complete Main
Default : No
Forced : No

Audio #7
ID : 8
Format : AC-3
Format/Info : Audio Coding 3
Commercial name : Dolby Digital
Codec ID : A_AC3
Duration : 1 h 32 min
Bit rate mode : Constant
Bit rate : 384 kb/s
Channel(s) : 6 channels
Channel layout : L R C LFE Ls Rs
Sampling rate : 48.0 kHz
Frame rate : 31.250 FPS (1536 SPF)
Bit depth : 16 bits
Compression mode : Lossy
Stream size : 254 MiB (3%)
Title : Одноголосый. И. Александров
Language : Russian
Service kind : Complete Main
Default : No
Forced : No

Audio #8
ID : 9
Format : AC-3
Format/Info : Audio Coding 3
Commercial name : Dolby Digital
Codec ID : A_AC3
Duration : 1 h 32 min
Bit rate mode : Constant
Bit rate : 384 kb/s
Channel(s) : 6 channels
Channel layout : L R C LFE Ls Rs
Sampling rate : 48.0 kHz
Frame rate : 31.250 FPS (1536 SPF)
Bit depth : 16 bits
Compression mode : Lossy
Stream size : 254 MiB (3%)
Language : English
Service kind : Complete Main
Default : No
Forced : No

Text #1
ID : 10
Format : UTF-8
Codec ID : S_TEXT/UTF8
Codec ID/Info : UTF-8 Plain Text
Duration : 1 h 15 min
Bit rate : 0 b/s
Count of elements : 4
Stream size : 220 Bytes (0%)
Title : Форсированные
Language : Russian
Default : Yes
Forced : Yes

Text #2
ID : 11
Format : UTF-8
Codec ID : S_TEXT/UTF8
Codec ID/Info : UTF-8 Plain Text
Duration : 1 h 24 min
Bit rate : 101 b/s
Count of elements : 996
Stream size : 62.8 KiB (0%)
Title : Nevafilm
Language : Russian
Default : No
Forced : No

Text #3
ID : 12
Format : UTF-8
Codec ID : S_TEXT/UTF8
Codec ID/Info : UTF-8 Plain Text
Duration : 1 h 23 min
Bit rate : 85 b/s
Count of elements : 1654
Stream size : 52.3 KiB (0%)
Title : Киномания
Language : Russian
Default : No
Forced : No

Text #4
ID : 13
Format : UTF-8
Codec ID : S_TEXT/UTF8
Codec ID/Info : UTF-8 Plain Text
Duration : 1 h 23 min
Bit rate : 61 b/s
Count of elements : 1094
Stream size : 37.3 KiB (0%)
Language : English
Default : No
Forced : No

Menu
00:00:00.000 : en:Начальные титры / Main Titles
00:01:33.092 : en:В шкафу монстр / Monster in the Closet
00:03:07.604 : en:Мистер Водоног / Mr. Waternoose
00:04:51.124 : en:Утренняя зарядка / Morning Workout
00:07:16.936 : en:Монстрополис / Monstropolis
00:09:11.509 : en:"Корпорация монстров" / Monsters, Inc.
00:10:43.601 : en:Рэндалл / Randall
00:11:53.796 : en:Этаж страхов / The Scare Floor
00:17:25.794 : en:"23-19!"
00:20:06.079 : en:Конец рабочего дня / End of the Day
00:22:03.780 : en:Бу! / Boo!
00:25:48.421 : en:"У Годзиллы" / Harryhausen's
00:28:34.963 : en:Обратно в квартиру / Back at the Apartment
00:31:06.489 : en:Пора спать / Bedtime
00:34:49.962 : en:Тайно пронесем Бу на работу / Sneaking Boo to Work
00:36:55.630 : en:Горшок поломался / Potty Break
00:38:50.286 : en:Рэндалл что-то задумал / Randall's Plot
00:40:27.883 : en:Не та дверь / The Wrong Door
00:43:34.278 : en:Майк в бегах / Mike on the Run
00:45:29.726 : en:Пресс для отходов / The Trash Compactor
00:48:07.426 : en:Майкла похитили / Mike Kidnapped
00:50:37.159 : en:Криковыжималка / The Scream Extractor
00:54:41.277 : en:Салли напугал Бу / Sulley Scares Boo
00:57:29.445 : en:В изгнании / Banished
01:03:42.026 : en:Салли спасает Бу / Sulley Rescues Boo
01:06:25.022 : en:"Круглик-бублик" / "Schmoopsie Poo!"
01:07:26.375 : en:Дверехранилище / The Door Vault
01:13:52.135 : en:Водонога обвели вокруг пальца / Tricking Waternoose
01:17:49.581 : en:Прощайте / Goodbye
01:21:24.921 : en:Этаж смехов / The Laugh Floor
01:24:07.959 : en:Котик! / Kitty!
01:25:06.225 : en:Конечные титры / End Credits






_________________
Проголосуй за трекер Открытый торрент трекер - RUS-MEDIA.ORG

Проголосуй Открытый торрент трекер - RUS-MEDIA.ORG


Вернуться к началу
 Профиль Отправить личное сообщение  
 
   Похожие торренты   Автор   Торрент   Размер 
В этой теме нет новых непрочитанных сообщений. Ужастики / Goosebumps [фэнтези, комедия, приключения, 2015] BDRip 1080p, Dub+Sub [3D-Video | iTunes]

Dracon

1036 | 213

7.34 ГБ

В этой теме нет новых непрочитанных сообщений. Царь обезьян: Царство женщин / Xi you ji nu er guo [фэнтези, боевик, приключения, комедия, 2018] BDRip 1080p, Mvo [3D-Video]

salma3

76 | 36

14.53 ГБ

В этой теме нет новых непрочитанных сообщений. Аисты / Storks ( Мультфильм, Фэнтези, Комедия, Приключения, Семейный, 2016) BDRip 1080p от Ash61 | 3D-Video | halfOU | iTunes

marya111

129 | 91

9.19 ГБ

В этой теме нет новых непрочитанных сообщений. Хороший динозавр / The Good Dinosaur [Мультфильм, фэнтези, комедия, приключения, семейный, 2015] BDRip 1080p, dub [3D-Video | чистый звук]

Dracon

39 | 9

14.07 ГБ

В этой теме нет новых непрочитанных сообщений. Корпорация «Святые моторы» / Holy Motors [фэнтези, драма, артхаус, 2012] BDRip 1080p, Mvo

salma3

35 | 12

12.81 ГБ

В этой теме нет новых непрочитанных сообщений. Большой и добрый великан / The BFG [Фэнтези, приключения, семейный, 2016] BDRip 1080p, Dub+Sub [3D-Video] [Лицензия]

salma3

110 | 36

8.09 ГБ

В этой теме нет новых непрочитанных сообщений. Большой и добрый великан / The BFG [Фэнтези, приключения, семейный, 2016] BDRip 1080p, Dub+Sub [3D-Video] [Лицензия]

salma3

54 | 22

7.27 ГБ


Начать новую тему Ответить на тему  [ 1 сообщение ] 




Для Мосгорсуда, Роскомнадзора и рекламодателей:: mosgorsud-torrent[собачка]yandex.ru
cron