Торрент файл
скачать торрент магнет ссылка Добавлен: 24 май 2018, 20:48
Размер: 1.95 ГБ
Сидеров: 52
Личеров: 55
Статус: (salma3)
Автор

СообщениеДобавлено: 24 май 2018, 20:48 

Не в сети
Супермодератор
Аватара пользователя
Дата регистрации:
15 фев 2012, 16:44
Возраст: 29
Спасибо: 7393 / 2147
Сообщения: 78044
Год выпуска: 1992
Жанр: Боевик
Режиссер: Игорь Муругов

В ролях: Татьяна Скороходова, Василий Шлыков, Лидия Велешева, Валерий Воронин, Валерий Порошин, Юрий Новохижин, Евгений Дворжецкий

Описание: Кинокаскадёр Сергей Громов, оставшись без работы, по предложению знакомого решает немного подзаработать и перегнать автомобиль из Тольятти. Перегон проходит вполне успешно, и чуть позже ему предлагают cделать это повторно, но на этот раз машина находится уже во Владивостоке. Волей случая он оказывается втянутым и в дела местной приморской мафии, контролирующей перегоны. А впоследствии обнаруживается, что в машине спрятана большая партия наркотиков.



Страна: Россия
Продолжительность: 01:17:32
Перевод: Не требуется

Файл
Кодек: х264
Качество: DVDRip-AVC
Видео: MPEG-4 AVC, 696x574@742x574, 3266 Кбит/с, 25.000 Кадр/с
Аудио: AC3, 2 ch, 192 Кбит/с

Релиз от:


Общее
Уникальный идентификатор : 170160000188306256160023580532373106629 (0x80039FBC7ECA793599D3642A9836AFC5)
Полное имя : Риск без контракта_1992-DVDRip-AVC_KORSAR.mkv
Формат : Matroska
Версия формата : Version 2
Размер файла : 1,95 Гбайт
Продолжительность : 1 ч. 17 м.
Общий поток : 3593 Кбит/сек
Название фильма : Риск без контракта_1992-DVDRip-AVC_KORSAR
Дата кодирования : UTC 2017-10-25 06:01:27
Программа кодирования : mkvmerge v5.8.0 ('No Sleep / Pillow') built on Sep 2 2012 15:37:04
Библиотека кодирования : libebml v1.2.3 + libmatroska v1.3.0
Видео
Идентификатор : 1
Формат : AVC
Формат/Информация : Advanced Video Codec
Профиль формата : High@L4.1
Параметр CABAC формата : Да
Параметр RefFrames формата : 15 кадров
Идентификатор кодека : V_MPEG4/ISO/AVC
Продолжительность : 1 ч. 17 м.
Битрейт : 3266 Кбит/сек
Ширина : 696 пикселей
Высота : 574 пикселя
Соотношение сторон : 1,293
Режим частоты кадров : Постоянный
Частота кадров : 25,000 кадров/сек
Цветовое пространство : YUV
Субдискретизация насыщенности : 4:2:0
Битовая глубина : 8 бит
Тип развёртки : Прогрессивная
Бит/(Пиксели*Кадры) : 0.327
Размер потока : 1,77 Гбайт (91%)
Библиотека кодирования : x264 core 148 r2744kMod b97ae06
Настройки программы : cabac=1 / ref=15 / deblock=1:-1:-1 / analyse=0x3:0x133 / me=umh / subme=10 / psy=1 / fade_compensate=0.00 / psy_rd=1.05:0.10 / mixed_ref=1 / me_range=32 / chroma_me=1 / trellis=2 / 8x8dct=1 / cqm=0 / deadzone=21,11 / fast_pskip=1 / chroma_qp_offset=-3 / threads=12 / lookahead_threads=2 / sliced_threads=0 / nr=0 / decimate=1 / interlaced=0 / bluray_compat=0 / constrained_intra=0 / bframes=9 / b_pyramid=2 / b_adapt=2 / b_bias=0 / direct=1 / weightb=1 / open_gop=0 / weightp=2 / keyint=250 / keyint_min=25 / scenecut=40 / intra_refresh=0 / rc=crf / mbtree=0 / crf=18.0000 / qcomp=0.63 / qpmin=0 / qpmax=39 / qpstep=4 / ip_ratio=1.40 / pb_ratio=1.30 / aq=2:1.00
Язык : English
Default : Да
Forced : Нет
Цветовой диапазон : Limited
Основные цвета : BT.601 PAL
Характеристики трансфера : BT.470 System B, BT.470 System G
Коэффициенты матрицы : BT.601
Аудио
Идентификатор : 2
Формат : AC-3
Формат/Информация : Audio Coding 3
Параметр Endianness формата : Big
Идентификатор кодека : A_AC3
Продолжительность : 1 ч. 17 м.
Вид битрейта : Постоянный
Битрейт : 256 Кбит/сек
Каналы : 2 канала
Расположение каналов : Front: L R
Частота : 48,0 КГц
Частота кадров : 31,250 кадров/сек (1536 SPF)
Битовая глубина : 16 бит
Метод сжатия : С потерями
Размер потока : 142 Мбайт (7%)
Язык : Russian
Default : Да
Forced : Нет
x264 [info]: frame I:596 Avg QP:17.35 size: 69808
x264 [info]: frame P:23644 Avg QP:18.93 size: 39857
x264 [info]: frame B:92073 Avg QP:20.63 size: 10382


_________________
Проголосуй за трекер Открытый торрент трекер - RUS-MEDIA.ORG

Проголосуй Открытый торрент трекер - RUS-MEDIA.ORG


Вернуться к началу
 Профиль Отправить личное сообщение  
 
   Похожие торренты   Автор   Торрент   Размер 
В этой теме нет новых непрочитанных сообщений. Высший риск / High Risk [боевик, комедия, криминал, 1981] DVDRip, Avo

salma3

18 | 0

1.44 ГБ

В этой теме нет новых непрочитанных сообщений. Максимальный риск / Maximum Risk [Боевик, триллер, мелодрама, 1996] HDRip, Dub

salma3

7 | 1

746 МБ

В этой теме нет новых непрочитанных сообщений. Максимальный риск / Maximum Risk [Боевик, триллер, криминал, 1996] BDRemux 1080p, Dub

salma3

0 | 1

29.69 ГБ

В этой теме нет новых непрочитанных сообщений. Максимальный риск / Maximum Risk [боевик, триллер, мелодрама, 1996] BDRip 720p, Dub

salma3

17 | 3

6.23 ГБ

В этой теме нет новых непрочитанных сообщений. Максимальный риск / Maximum Risk [боевик, триллер, мелодрама, 1996] BDRip 1080p, Dub

salma3

32 | 11

17.45 ГБ

В этой теме нет новых непрочитанных сообщений. Риск стрелка Шарпа / Sharpe's Peril [Боевик, драма, приключения, 2008] BDRip 720p, Avo

salma3

0 | 0

5.72 ГБ

В этой теме нет новых непрочитанных сообщений. Амитивилль 1992: Вопрос времени / Amityville: It's About Time [ужасы, 1992] DVDRip, Avo

salma3

0 | 1

1.45 ГБ


Начать новую тему Ответить на тему  [ 1 сообщение ] 




Для Мосгорсуда, Роскомнадзора и рекламодателей:: mosgorsud-torrent[собачка]yandex.ru
cron