Торрент файл
скачать торрент магнет ссылка Добавлен: 14 июл 2018, 16:45
Размер: 1.46 ГБ
Сидеров: 0
Личеров: 0
Статус: (salma3)
Автор

СообщениеДобавлено: 14 июл 2018, 16:45 

В сети
Супермодератор
Аватара пользователя
Дата регистрации:
15 фев 2012, 16:44
Возраст: 29
Спасибо: 7400 / 2147
Сообщения: 78337
Год выхода: 2018
Жанр: Комедия
Режиссер: Алексей Нужный

В ролях: Александра Бортич, Ирина Горбачева, Сергей Шнуров, Евгений Кулик, Роман Курцын, Александр Пташенчук, Елена Валюшкина, Валерия Дергилева, Андрей Трушин, Олег Кассин и др.

О фильме: В жизни Ани есть две главные любви — её парень Женя и еда. Из-за еды они и расстаются: Жене совсем не нравится, как Аня стала выглядеть. Аня не готова просто сдаться. При поддержке лучшей подруги и увлечённого здоровым образом жизни добряка Коли она пускается в увлекательное приключение, чтобы похудеть и обрести любовь и счастье.



Страна: Россия
Продолжительность: 01:42:40
Перевод: Не требуется

Файл
Формат: AVI
Качество: BDRip
Видео: Xvid, 720x320, ~1581 kbps, 24,000 fps
Звук: русский, AC3 5.1, 48 kHz, 448 kbps | Лицензия



General
Полное имя : F:TorrentJaHudeyuBDRipAVI.avi
Формат : AVI
Формат/Информация : Audio Video Interleave
Размер файла : 1.46 GiB
Продолжительность : 1 h 42 min
Общий поток : 2 038 kb/s
Библиотека кодирования : VirtualDub build 35491/release

Video
Идентификатор : 0
Формат : MPEG-4 Visual
Профиль формата : Advanced Simple@L5
Настройки формата : BVOP2 / Custom Matrix
Параметр BVOP формата : 2
Параметр QPel формата : No
Параметр GMC формата : No warppoints
Параметр матрицы формата : Custom
Идентификатор кодека : XVID
Идентификатор кодека/Подсказка : XviD
Продолжительность : 1 h 42 min
Битрейт : 1 581 kb/s
Ширина : 720 pixels
Высота : 320 pixels
Соотношение сторон : 2.25:1
Частота кадров : 24.000 FPS
Цветовое пространство : YUV
Субдискретизация насыщенности : 4:2:0
Битовая глубина : 8 bits
Тип развёртки : Progressive
Метод сжатия : Lossy
Бит/(Пиксели*Кадры) : 0.286
Размер потока : 1.13 GiB (78%)
Библиотека кодирования : XviD 67

Audio
Идентификатор : 1
Формат : AC-3
Формат/Информация : Audio Coding 3
Идентификатор кодека : 2000
Продолжительность : 1 h 42 min
Вид битрейта : Constant
Битрейт : 448 kb/s
Каналы : 6 channels
Расположение каналов : Front: L C R, Side: L R, LFE
Частота : 48.0 kHz
Частота кадров : 31.250 FPS (1536 SPF)
Битовая глубина : 16 bits
Метод сжатия : Lossy
Размер потока : 329 MiB (22%)
Выравнивание : Aligned on interleaves
Продолжительность промежутка : 42 ms (1.00 video frame)
Время предзагрузки промежутка : 512 ms






_________________
Проголосуй за трекер Открытый торрент трекер - RUS-MEDIA.ORG

Проголосуй Открытый торрент трекер - RUS-MEDIA.ORG


Вернуться к началу
 Профиль Отправить личное сообщение  
 
   Похожие торренты   Автор   Торрент   Размер 
В этой теме нет новых непрочитанных сообщений. Я худею [Комедия, 2018] BDRip-AVC [Лицензия]

salma3

345 | 7

2.18 ГБ

В этой теме нет новых непрочитанных сообщений. Я худею [Комедия, 2018] BDRip [Лицензия]

salma3

0 | 0

1.46 ГБ

В этой теме нет новых непрочитанных сообщений. Я худею [Комедия, 2018] BDRip 1080p [Лицензия]

salma3

0 | 0

8.71 ГБ

В этой теме нет новых непрочитанных сообщений. Я худею [Комедия, 2018] BDRip 720p [Лицензия]

salma3

0 | 0

5.47 ГБ

В этой теме нет новых непрочитанных сообщений. Я худею [комедия, мелодрама, 2018] WEB-DLRip [iTunes]

salma3

9297 | 691

1.37 ГБ

В этой теме нет новых непрочитанных сообщений. Я худею [комедия, мелодрама, 2018] WEB-DLRip-AVC [iTunes]

salma3

760 | 204

1.5 ГБ

В этой теме нет новых непрочитанных сообщений. Ты водишь! / Tag [Комедия, 2018] BDRip 1080p, Dub [Лицензия]

salma3

0 | 0

12.6 ГБ


Начать новую тему Ответить на тему  [ 1 сообщение ] 




Для Мосгорсуда, Роскомнадзора и рекламодателей:: mosgorsud-torrent[собачка]yandex.ru
cron