Торрент файл
скачать торрент магнет ссылка Добавлен: 20 июл 2018, 21:14
Размер: 1.46 ГБ
Сидеров: 2404
Личеров: 320
Статус: (salma3)
Автор

СообщениеДобавлено: 20 июл 2018, 21:14 

Не в сети
Супермодератор
Аватара пользователя
Дата регистрации:
15 фев 2012, 16:44
Возраст: 29
Спасибо: 7401 / 2147
Сообщения: 78470
Год выхода: 2018
Жанр: Военный, драма, история
Режиссер: Павел Дроздов

В ролях: Андрей Мерзликин, Алена Чехова, Артур Ваха, Анатолий Гущин, Егор Бероев, Юрий Кузнецов, Дагун Омаев, Сергей Горобченко, Родион Долгирев, Анна Чурина и др.

О фильме: Октябрь сорок первого года. Многотысячное немецкое войско наступает на Калинин (ныне Тверь), чтобы, захватив его, открыть себе прямой путь на Москву. На защите города всего две тысячи человек без танков и артиллерии. Единственная надежда задержать врага — эшелоны пятой стрелковой дивизии, которые вот-вот должны пройти через Калининскую станцию. Но диверсанты намерены сделать все, чтобы этого не случилось. Начальник Калининского гарнизона, майор Павел Сысоев, изо всех сил пытаясь сохранить в городе порядок и спокойствие, сам попадает под подозрение в причастности к вражеской диверсионной группе.



Страна: Россия
Продолжительность: 01:55:21
Перевод: Не требуется

Файл
Формат: AVI
Качество: WEB-DLRip
Видео: Xvid, 720x304, ~1420 kbps, 24,000 fps
Звук: русский, AC3 5.1, 48 kHz, 384 kbps | iTunes

General
Полное имя : F:TorrentProshchatsyaNeBudem.avi
Формат : AVI
Формат/Информация : Audio Video Interleave
Профиль формата : OpenDML
Размер файла : 1.46 GiB
Продолжительность : 1 h 55 min
Общий поток : 1 816 kb/s
Программа кодирования : XviD4PSP 6.0 / 54.27.101

Video
Идентификатор : 0
Формат : MPEG-4 Visual
Профиль формата : Advanced Simple@L5
Настройки формата : BVOP2 / Custom Matrix
Параметр BVOP формата : 2
Параметр QPel формата : No
Параметр GMC формата : No warppoints
Параметр матрицы формата : Custom
Идентификатор кодека : XVID
Идентификатор кодека/Подсказка : XviD
Продолжительность : 1 h 55 min
Битрейт : 1 420 kb/s
Ширина : 720 pixels
Высота : 304 pixels
Соотношение сторон : 2.35:1
Частота кадров : 24.000 FPS
Цветовое пространство : YUV
Субдискретизация насыщенности : 4:2:0
Битовая глубина : 8 bits
Тип развёртки : Progressive
Метод сжатия : Lossy
Бит/(Пиксели*Кадры) : 0.270
Размер потока : 1.14 GiB (78%)
Библиотека кодирования : XviD 67

Audio
Идентификатор : 1
Формат : AC-3
Формат/Информация : Audio Coding 3
Идентификатор кодека : 2000
Продолжительность : 1 h 55 min
Вид битрейта : Constant
Битрейт : 384 kb/s
Каналы : 6 channels
Расположение каналов : Front: L C R, Side: L R, LFE
Частота : 48.0 kHz
Частота кадров : 31.250 FPS (1536 SPF)
Битовая глубина : 16 bits
Метод сжатия : Lossy
Размер потока : 317 MiB (21%)
Выравнивание : Aligned on interleaves
Продолжительность промежутка : 32 ms (0.77 video frame)




_________________
Проголосуй за трекер Открытый торрент трекер - RUS-MEDIA.ORG

Проголосуй Открытый торрент трекер - RUS-MEDIA.ORG


Вернуться к началу
 Профиль Отправить личное сообщение  
 
   Похожие торренты   Автор   Торрент   Размер 
В этой теме нет новых непрочитанных сообщений. Прощаться не будем [Военный, драма, история, 2018] WEB-DLRip-AVC [iTunes]

salma3

0 | 0

1.46 ГБ

В этой теме нет новых непрочитанных сообщений. Прощаться не будем (2018) WEB-DL 1080p [iTunes]

salma3

1168 | 482

4 ГБ

В этой теме нет новых непрочитанных сообщений. Кавалерия / 12 Strong [боевик, драма, военный, история, 2018] WEB-DLRip, Mvo

salma3

0 | 0

1.47 ГБ

В этой теме нет новых непрочитанных сообщений. Кавалерия / 12 Strong [боевик, драма, военный, история, 2018] WEB-DLRip, Mvo

salma3

0 | 0

697.41 МБ

В этой теме нет новых непрочитанных сообщений. Поезд на Париж / The 15:17 to Paris [Триллер, драма, история, 2018] WEB-DLRip-AVC, Dub [iTunes]

salma3

28 | 8

1.45 ГБ

В этой теме нет новых непрочитанных сообщений. Повторный После Валькирии: Рассвет четвертого Рейха (боевик, военный, история, 2016) WEB-DLRip | iTunes Данный торрент является блокированным, причина: повторный торрент

marya111

0 | 0

1.37 ГБ

В этой теме нет новых непрочитанных сообщений. После Валькирии: Рассвет четвертого Рейха [боевик, военный, история, 2016] WEB-DLRip-AVC, Mvo [iTunes]

marya111

178 | 30

1.36 ГБ


Начать новую тему Ответить на тему  [ 1 сообщение ] 




Для Мосгорсуда, Роскомнадзора и рекламодателей:: mosgorsud-torrent[собачка]yandex.ru
cron