Торрент файл
скачать торрент магнет ссылка Добавлен: 28 июл 2018, 20:42
Размер: 1.46 ГБ
Сидеров: 1022
Личеров: 40
Статус: (salma3)
Автор

СообщениеДобавлено: 28 июл 2018, 20:42 

Не в сети
Супермодератор
Аватара пользователя
Дата регистрации:
15 фев 2012, 16:44
Возраст: 29
Спасибо: 7401 / 2147
Сообщения: 78470
Год выхода: 2018
Жанр: Биография, музыка, драма
Режиссер: Кирилл Серебренников

В ролях: Рома Зверь, Ирина Старшенбаум, Тео Ю, Филипп Авдеев, Евгений Серзин, Александр Горчилин, Василий Михайлов, Александр Кузнецов, Никита Ефремов, Герман Осипов и др.

О фильме: Фильм рассказывает о самом начале творческого пути Виктора Цоя и группы «Кино», о его взаимоотношениях с Майком Науменко, его женой Натальей и многими, кто был в авангарде рок-движения Ленинграда 1981 года. Это история о Ленинграде 80-х, о любви, поисках и больших надеждах — о настроении, которое останется с нами навсегда.



Страна: Россия
Перевод: Не требуется
Продолжительность: 02:08:34

Файл
Формат: AVI
Качество: WEB-DLRip
Видео: Xvid, 720x272, ~1421 kbps, 23,976 fps
Звук: русский, AC3, 2 ch, 48 kHz, 192 kbps | iTunes



General
Полное имя : F:TorrentLeto.avi
Формат : AVI
Формат/Информация : Audio Video Interleave
Размер файла : 1.46 GiB
Продолжительность : 2 h 8 min
Общий поток : 1 622 kb/s
Библиотека кодирования : VirtualDub build 35491/release

Video
Идентификатор : 0
Формат : MPEG-4 Visual
Профиль формата : Advanced Simple@L5
Настройки формата : BVOP2 / Custom Matrix
Параметр BVOP формата : 2
Параметр QPel формата : No
Параметр GMC формата : No warppoints
Параметр матрицы формата : Custom
Идентификатор кодека : XVID
Идентификатор кодека/Подсказка : XviD
Продолжительность : 2 h 8 min
Битрейт : 1 421 kb/s
Ширина : 720 pixels
Высота : 272 pixels
Соотношение сторон : 2.647
Частота кадров : 23.976 (24000/1001) FPS
Цветовое пространство : YUV
Субдискретизация насыщенности : 4:2:0
Битовая глубина : 8 bits
Тип развёртки : Progressive
Метод сжатия : Lossy
Бит/(Пиксели*Кадры) : 0.303
Размер потока : 1.28 GiB (88%)
Библиотека кодирования : XviD 67

Audio
Идентификатор : 1
Формат : AC-3
Формат/Информация : Audio Coding 3
Идентификатор кодека : 2000
Продолжительность : 2 h 8 min
Вид битрейта : Constant
Битрейт : 192 kb/s
Каналы : 2 channels
Расположение каналов : Front: L R
Частота : 48.0 kHz
Частота кадров : 31.250 FPS (1536 SPF)
Битовая глубина : 16 bits
Метод сжатия : Lossy
Размер потока : 177 MiB (12%)
Выравнивание : Aligned on interleaves
Продолжительность промежутка : 42 ms (1.00 video frame)
Время предзагрузки промежутка : 512 ms






_________________
Проголосуй за трекер Открытый торрент трекер - RUS-MEDIA.ORG

Проголосуй Открытый торрент трекер - RUS-MEDIA.ORG


Вернуться к началу
 Профиль Отправить личное сообщение  
 
   Похожие торренты   Автор   Торрент   Размер 
В этой теме нет новых непрочитанных сообщений. Довлатов [Драма, мелодрама, биография, 2018] WEB-DLRip [iTunes]

salma3

973 | 272

1.46 ГБ

В этой теме нет новых непрочитанных сообщений. Довлатов [Драма, мелодрама, биография, 2018] WEB-DLRip [iTunes]

salma3

3 | 3

2.18 ГБ

В этой теме нет новых непрочитанных сообщений. Клуб миллиардеров / Billionaire Boys Club [Триллер, драма, биография, 2018] WEB-DLRip-AVC, Dub [iTunes]

salma3

0 | 0

1.75 ГБ

В этой теме нет новых непрочитанных сообщений. Клуб миллиардеров / Billionaire Boys Club [Триллер, драма, биография, 2018] WEB-DLRip, Dub [iTunes]

salma3

0 | 0

1.46 ГБ

В этой теме нет новых непрочитанных сообщений. Танцовщица / La danseuse ( драма, биография, музыка, 2016) BDRip | iTunes

marya111

44 | 4

2.03 ГБ

В этой теме нет новых непрочитанных сообщений. Танцовщица / La danseuse (драма, биография, музыка, 2016) HDRip-AVC | iTunes

marya111

75 | 15

742.27 МБ

В этой теме нет новых непрочитанных сообщений. Танцовщица / La danseuse ( драма, биография, музыка, 2016) BDRip 1080p | iTunes

marya111

150 | 29

8.24 ГБ


Начать новую тему Ответить на тему  [ 1 сообщение ] 




Для Мосгорсуда, Роскомнадзора и рекламодателей:: mosgorsud-torrent[собачка]yandex.ru
cron