Торрент файл
скачать торрент магнет ссылка Добавлен: 04 авг 2018, 11:06
Размер: 1.46 ГБ
Сидеров: 172
Личеров: 18
Статус: (salma3)
Автор

СообщениеДобавлено: 04 авг 2018, 11:06 

Не в сети
Супермодератор
Аватара пользователя
Дата регистрации:
15 фев 2012, 16:44
Возраст: 29
Спасибо: 7400 / 2147
Сообщения: 78391
Год выхода: 2018
Жанр: Военный, боевик, драма
Страна: Россия
Перевод: Не требуется
Продолжительность: 01:32:20
Режиссер: Александр Аравин

В ролях: Игорь Петренко, Алексей Вертков, Аюб Цингиев, Алексей Шевченков, Дмитрий Парастаев, Иван Шахназаров, Дагун Омаев, Сослан Фидаров, Кирилл Краснов, Шамиль Алханов и др.

О фильме: Особое задание спецгруппы ФСБ — ликвидация одержимого террориста Шамиля Базгаева. Охота продолжается уже долго, но жестокий лидер боевиков раз за разом ускользает. Однако, когда Базгаеву удается заполучить мощное оружие для осуществления своего самого страшного теракта, у оперативников больше нет права на ошибку. Для этих спецов преодоление себя, смертельный риск и подвиг — не что-то сверхъестественное, а каждодневный тяжелый труд. Но, кажется, даже для них эта операция — за пределами возможностей…



Файл
Качество: WEB-DLRip-AVC
Видео: AVC, 1024x428 (2.40:1), 1883 kbps, 25 fps, 0,172 bpp
Аудио: русский / AC3 / 2.0 / 48 kHz / 384 kbps / ||

Семпл

General
Unique ID : 226389581827562918942790125432642215460 (0xAA510C273FE3471EBD8A60E57A5C1E24)
Complete name : E:Запись с твReshenie o likvidacii.2018.WEB-DLRip-AVC.by.White Smoke.R.G.Generalfilm.mkv
Format : Matroska
Format version : Version 2
File size : 1.46 GiB
Duration : 1 h 32 min
Overall bit rate : 2 269 kb/s
Movie name : Reshenie o likvidacii.2018.WEB-DLRip-AVC.by.White Smoke.R.G.Generalfilm.mkv
Encoded date : UTC 2018-08-03 13:22:54
Writing application : mkvmerge v7.6.0 ('Garden of Dreams') 32bit built on Feb 11 2015 00:18:47
Writing library : libebml v1.3.1 + libmatroska v1.4.2
Cover : Yes
Attachments : cover.jpg

Video
ID : 1
Format : AVC
Format/Info : Advanced Video Codec
Format profile : High@L4.1
Format settings, CABAC : Yes
Format settings, ReFrames : 10 frames
Codec ID : V_MPEG4/ISO/AVC
Duration : 1 h 32 min
Bit rate : 1 883 kb/s
Width : 1 024 pixels
Height : 428 pixels
Display aspect ratio : 2.40:1
Frame rate mode : Constant
Frame rate : 25.000 FPS
Color space : YUV
Chroma subsampling : 4:2:0
Bit depth : 8 bits
Scan type : Progressive
Bits/(Pixel*Frame) : 0.172
Stream size : 1.19 GiB (81%)
Writing library : x264 core 148 r2638 7599210
Encoding settings : cabac=1 / ref=10 / deblock=1:-2:-1 / analyse=0x3:0x113 / me=umh / subme=11 / psy=1 / psy_rd=0.00:0.15 / mixed_ref=1 / me_range=32 / chroma_me=1 / trellis=2 / 8x8dct=1 / cqm=0 / deadzone=21,11 / fast_pskip=0 / chroma_qp_offset=-3 / threads=6 / lookahead_threads=1 / sliced_threads=0 / nr=0 / decimate=0 / interlaced=0 / bluray_compat=0 / constrained_intra=0 / bframes=10 / b_pyramid=2 / b_adapt=2 / b_bias=0 / direct=1 / weightb=1 / open_gop=0 / weightp=2 / keyint=250 / keyint_min=25 / scenecut=40 / intra_refresh=0 / rc_lookahead=40 / rc=2pass / mbtree=1 / bitrate=1883 / ratetol=1.0 / qcomp=0.65 / qpmin=0 / qpmax=69 / qpstep=4 / cplxblur=20.0 / qblur=0.5 / vbv_maxrate=50000 / vbv_bufsize=65500 / nal_hrd=none / filler=0 / ip_ratio=1.40 / aq=1:1.00
Language : English
Default : Yes
Forced : No

Audio
ID : 2
Format : AC-3
Format/Info : Audio Coding 3
Mode extension : CM (complete main)
Format settings, Endianness : Big
Codec ID : A_AC3
Duration : 1 h 32 min
Bit rate mode : Constant
Bit rate : 384 kb/s
Channel(s) : 2 channels
Channel positions : Front: L R
Sampling rate : 48.0 kHz
Frame rate : 31.250 FPS (1536 spf)
Compression mode : Lossy
Stream size : 254 MiB (17%)
Language : Russian
Default : Yes
Forced : No




Релиз от:


_________________
Проголосуй за трекер Открытый торрент трекер - RUS-MEDIA.ORG

Проголосуй Открытый торрент трекер - RUS-MEDIA.ORG


Вернуться к началу
 Профиль Отправить личное сообщение  
 
   Похожие торренты   Автор   Торрент   Размер 
В этой теме нет новых непрочитанных сообщений. Решение о ликвидации [Военный, боевик, драма, 2018] WEB-DLRip

salma3

1142 | 593

1.46 ГБ

В этой теме нет новых непрочитанных сообщений. Решение о ликвидации [Военный, боевик, драма, 2018] WEB-DLRip-AVC

salma3

0 | 0

1.45 ГБ

В этой теме нет новых непрочитанных сообщений. Решение о ликвидации [Военный, боевик, драма, 2018] WEB-DLRip [iTune]

salma3

6 | 17

745.34 МБ

В этой теме нет новых непрочитанных сообщений. Решение о ликвидации [Военный, боевик, драма, 2018] WEB-DLRip 1080p

salma3

1538 | 770

3.54 ГБ

В этой теме нет новых непрочитанных сообщений. Решение о ликвидации [Военный, боевик, драма, 2018] HDRip [Лицензия]

salma3

3 | 2

744.79 МБ

В этой теме нет новых непрочитанных сообщений. Решение о ликвидации [Военный, боевик, драма, 2018] BDRip [Лицензия]

salma3

0 | 0

1.46 ГБ

В этой теме нет новых непрочитанных сообщений. Кавалерия / 12 Strong [боевик, драма, военный, история, 2018] WEB-DLRip, Mvo

salma3

0 | 0

1.47 ГБ


Начать новую тему Ответить на тему  [ 1 сообщение ] 




Для Мосгорсуда, Роскомнадзора и рекламодателей:: mosgorsud-torrent[собачка]yandex.ru
cron