Торрент файл
скачать торрент магнет ссылка Добавлен: 16 янв 2017, 12:36
Размер: 1.46 ГБ
Сидеров: 73
Личеров: 9
Статус: (salma3)
Автор

СообщениеДобавлено: 16 янв 2017, 12:36 

Не в сети
Супермодератор
Аватара пользователя
Дата регистрации:
15 фев 2012, 16:44
Возраст: 29
Спасибо: 7401 / 2147
Сообщения: 78569
Год выхода: 1981
Жанр: Детский, приключения
Режиссёр: Станислав Говорухин

В ролях: Федя Стуков, Владик Сухачев (Галкин), Маша Миронова, Дима Рощин, Карина Моритц, Екатерина Васильева, Ролан Быков, Владимир Конкин, Виктор Павлов, Талгат Нигматулин, Лев Перфилов, Всеволод Абдулов, Валентина Шендрикова, Борис Зайденберг, Федор Одиноков, Валерий Рубинчик, Игорь Сорин, Бехайлу Менгаша

О фильме: Экранизация самого знаменитого романа американского писателя Марка Твена «Приключения Тома Сойера». Без книги о приключениях Тома и его друзей Гекльберри Финна и Бекки Тэтчер нельзя представить детство ребенка! Маленькие, но отважные герои Том и Гек разыскивают клад, становятся «пиратами», вступают в опасную схватку с индейцем Джо. Но, самое главное в этой истории - то, что они учатся быть верными друзьями и добрыми людьми...



Страна: СССР
Продолжительность: 03:22:20
Перевод: Не требуется (оригинальный)

Файл
Формат: avi
Качество: SATRip (DVB)
Видео: XviD, 640х480, 25fps, 893kbps
Аудио: MPEG Layer 3, 2ch, 48000Hz, 128kbps

Общее
Полное имя : Tom.Soier.I.Gek.Finn.1981.O.SATRip.1400.CurHaJI.avi
Формат : AVI
Формат/Информация : Audio Video Interleave
Размер файла : 1,46 Гбайт
Продолжительность : 3 ч. 22 м.
Общий поток : 1031 Кбит/сек
Название фильма : Tom.Soier.I.Gek.Finn.1981.O.SATRip.1400.CurHaJI
Библиотека кодирования : VirtualDub build 35491/release
Видео
Идентификатор : 0
Формат : MPEG-4 Visual
Профиль формата : Advanced Simple@L5
Параметр BVOP формата : 2
Параметр QPel формата : Нет
Параметр GMC формата : Без точки перехода
Параметр матрицы формата : Выборочная
Идентификатор кодека : XVID
Идентификатор кодека/Подсказка : XviD
Продолжительность : 3 ч. 22 м.
Битрейт : 893 Кбит/сек
Ширина : 640 пикселей
Высота : 480 пикселей
Соотношение сторон : 4:3
Частота кадров : 25,000 кадров/сек
Цветовое пространство : YUV
Субдискретизация насыщенности : 4:2:0
Битовая глубина : 8 бит
Тип развёртки : Прогрессивная
Метод сжатия : С потерями
Бит/(Пиксели*Кадры) : 0.116
Размер потока : 1,26 Гбайт (87%)
Библиотека кодирования : XviD 73
Аудио
Идентификатор : 1
Формат : MPEG Audio
Версия формата : Version 1
Профиль формата : Layer 3
Идентификатор кодека : 55
Идентификатор кодека/Подсказка : MP3
Продолжительность : 3 ч. 22 м.
Вид битрейта : Постоянный
Битрейт : 128 Кбит/сек
Каналы : 2 канала
Частота : 48,0 КГц
Метод сжатия : С потерями
Размер потока : 185 Мбайт (12%)
Выравнивание : Разделение по промежуткам
Продолжительность промежутка : 40 мс. (1,00 видеокадр)
Время предзагрузки промежутка : 500 мс.
Библиотека кодирования : LAME3.99r
Настройки программы : -m s -V 4 -q 2 -lowpass 17 -b 128


Релиз от:


_________________
Проголосуй за трекер Открытый торрент трекер - RUS-MEDIA.ORG

Проголосуй Открытый торрент трекер - RUS-MEDIA.ORG


Вернуться к началу
 Профиль Отправить личное сообщение  
 
   Похожие торренты   Автор   Торрент   Размер 
В этой теме нет новых непрочитанных сообщений. Приключения Тома Сойера и Гекльберри Финна (1981) SATRip

marya111

51 | 5

2.18 ГБ

В этой теме нет новых непрочитанных сообщений. Приключения Тома Сойера / Tom and Huck [драма, мелодрама, комедия, 1995] WEB-DL 720p, Mvo

salma3

0 | 0

3.03 ГБ

В этой теме нет новых непрочитанных сообщений. Тима и Тома [01-41] (Мультсериал, рисованный, детский, комедия, приключения, 2015-2016) WEB-DLRip от ExKinoRay

marya111

51 | 12

2 ГБ

В этой теме нет новых непрочитанных сообщений. Три талера [01х01-04 из 04] [детский, детектив, приключения, 2005] SATRip-AVC

salma3

0 | 0

2.82 ГБ

В этой теме нет новых непрочитанных сообщений. Новые приключения кота Леопольда [01-13 из 13] (Анатолий Резников) [Мультсериал, рисованный, детский, 2015] SATRip

Dracon

1087 | 63

2.02 ГБ

В этой теме нет новых непрочитанных сообщений. Право на выстрел [боевик, приключения, 1981] DVDRip

salma3

21 | 13

1.09 ГБ

В этой теме нет новых непрочитанных сообщений. Око за око / An Eye for an Eye [боевик, триллер, криминал, приключения, 1981] BDRip, Mvo+Dvo

salma3

2 | 0

2.18 ГБ


Начать новую тему Ответить на тему  [ 1 сообщение ] 




Для Мосгорсуда, Роскомнадзора и рекламодателей:: mosgorsud-torrent[собачка]yandex.ru
cron