Торрент файл
скачать торрент магнет ссылка Добавлен: 22 фев 2017, 21:55
Размер: 1.46 ГБ
Сидеров: 9
Личеров: 6
Статус: (salma3)
Автор

СообщениеДобавлено: 22 фев 2017, 21:55 

Не в сети
Супермодератор
Аватара пользователя
Дата регистрации:
15 фев 2012, 16:44
Возраст: 29
Спасибо: 7433 / 2147
Сообщения: 80216
Режиссер: Григорий Рошаль
Жанр: драма, история
Продолжительность: 01:39:06
Год выпуска: 1958

В ролях: Руфина Нифонтова, Нина Веселовская, Вадим Медведев, Николай Гриценко, Майя Булгакова, Виктор Авдюшко, Сергей Яковлев, Павел Винников, Виктор Яковлев (II), Евгений Матвеев, Григорий Кириллов, Владимир Муравьёв, Леонид Пархоменко, Евгений Тетерин, Михаил Козаков, Александр Смирнов, Владимир Сез, Константин Немоляев, В. Адаменко, Георгий Георгиу, Вячеслав Гостинский...

Описание: В России Гражданская война. Её безжалостный вихрь разметал уже сложившиеся супружеские пары Даши и Ивана Телегиных и Кати и Вадима Рощиных. После смерти ребёнка Даша не находит в себе сил преодолеть ощущение собственной никчемности. Телегин уезжает на фронт в Красную Армию. Катя и Рощин едут на юг, по дороге Вадим решает вступить в Добровольческую армию и расстаётся с Катей.



Формат: DVDRip
Видео: 688x512 (4:3), 25 fps, XviD build 73 ~ 1907 kbps avg, 0.217 bit/pixel
Аудио: 48 kHz, AC3 Dolby Digital, 2/0 (L,R) ch, ~192 kbps

Общее
Полное имя : Vosemnadcatyy.god.1958.DVDRip.avi
Формат : AVI
Формат/Информация : Audio Video Interleave
Размер файла : 1,46 Гбайт
Продолжительность : 1 ч. 39 м.
Общий поток : 2108 Кбит/сек
Программа кодирования : VirtualDubMod 1.5.10.3 | www.virtualdub-fr.org || (build 2550/release)
Библиотека кодирования : VirtualDubMod build 2550/release

Видео
Идентификатор : 0
Формат : MPEG-4 Visual
Профиль формата : Advanced Simple@L5
Параметр BVOP формата : 1
Параметр QPel формата : Нет
Параметр GMC формата : Без точки перехода
Параметр матрицы формата : Выборочная
Идентификатор кодека : XVID
Идентификатор кодека/Подсказка : XviD
Продолжительность : 1 ч. 39 м.
Битрейт : 1907 Кбит/сек
Ширина : 688 пикселей
Высота : 512 пикселей
Соотношение сторон : 4:3
Частота кадров : 25,000 кадров/сек
Цветовое пространство : YUV
Субдискретизация насыщенности : 4:2:0
Битовая глубина : 8 бит
Тип развёртки : Прогрессивная
Метод сжатия : С потерями
Бит/(Пиксели*Кадры) : 0.217
Размер потока : 1,32 Гбайт (90%)
Библиотека кодирования : XviD 73

Аудио
Идентификатор : 1
Формат : AC-3
Формат/Информация : Audio Coding 3
Расширение режима : CM (complete main)
Параметр Endianness формата : Big
Идентификатор кодека : 2000
Продолжительность : 1 ч. 39 м.
Вид битрейта : Постоянный
Битрейт : 192 Кбит/сек
Каналы : 2 канала
Расположение каналов : Front: L R
Частота : 48,0 КГц
Частота кадров : 31,250 кадров/сек (1536 spf)
Битовая глубина : 16 бит
Метод сжатия : С потерями
Размер потока : 136 Мбайт (9%)
Выравнивание : Разделение по промежуткам
Продолжительность промежутка : 40 мс. (1,00 видеокадр)
Время предзагрузки промежутка : 500 мс




_________________
Проголосуй за трекер Открытый торрент трекер - RUS-MEDIA.ORG

Проголосуй Открытый торрент трекер - RUS-MEDIA.ORG


Вернуться к началу
 Профиль Отправить личное сообщение  
 
   Похожие торренты   Автор   Торрент   Размер 
В этой теме нет новых непрочитанных сообщений. Хождение по мукам: Восемнадцатый год [драма, история, 1958] DVDRip-AVC

salma3

23 | 11

1.46 ГБ

В этой теме нет новых непрочитанных сообщений. Хождение по мукам: Хмурое утро [драма, история, экранизация, 1959] DVDRip

salma3

18 | 7

1.46 ГБ

В этой теме нет новых непрочитанных сообщений. Хождение по мукам: Хмурое утро [драма, история, экранизация, 1959] DVDRip-AVC

salma3

38 | 10

1.46 ГБ

В этой теме нет новых непрочитанных сообщений. Хождение по мукам: Сёстры [драма, 1957] DVDRip-AVC

salma3

16 | 7

1.46 ГБ

В этой теме нет новых непрочитанных сообщений. Хождение по мукам: Сёстры [драма, 1957] DVDRip

salma3

11 | 7

1.46 ГБ

В этой теме нет новых непрочитанных сообщений. Красные листья [приключения, история, киноповесть, 1958] SATRip

salma3

0 | 2

1.09 ГБ

В этой теме нет новых непрочитанных сообщений. Викинги / The Vikings [Приключения, история, 1958] BDRip 1080p, Dub+Dvo

salma3

45 | 9

11.27 ГБ


Начать новую тему Ответить на тему  [ 1 сообщение ] 




Для Мосгорсуда, Роскомнадзора и рекламодателей:: mosgorsud-torrent[собачка]yandex.ru
cron